<?xml version="1.0" standalone="no"?>
<!DOCTYPE svg PUBLIC "-//W3C//DTD SVG 1.1//EN" "http://www.w3.org/Graphics/SVG/1.1/DTD/svg11.dtd" >
<svg>
<metadata>
Created by FontForge 20090914 at Mon Aug  6 07:17:26 2012
 By www-data
Copyright (c) Cadson Demak Co.,Ltd. All rights reserved.
This font is an exclusive license to Sanook Online Limited
Muang Thai - Phatra Complex, Tower A, 
15-16th Floor, 252/19-20 Rachadapisek Road, 
Huaykwang, Huaykwang, Bangkok 10310 
Thailand.
</metadata>
<defs>
<font id="Sukhumvit" horiz-adv-x="484" >
  <font-face 
    font-family="Sukhumvit"
    font-weight="400"
    font-stretch="normal"
    units-per-em="1000"
    panose-1="2 0 5 6 0 0 0 2 0 4"
    ascent="800"
    descent="-200"
    x-height="444"
    cap-height="607"
    bbox="-489 -460 870 925.999"
    underline-thickness="20"
    underline-position="-113"
    unicode-range="U+0020-U+FB02"
  />
<missing-glyph horiz-adv-x="606" 
 />
    <glyph glyph-name="uni0E5A" unicode="&#xe2f;&#xe2f;" horiz-adv-x="687" 
d="M643 0h-85v381c-22.667 -46.667 -62.667 -72.334 -120 -77.001v-304h-85v381c-24.667 -51.333 -69.667 -77 -135 -77c-55.333 0 -99 15.333 -131 46c-31.333 30 -47 70 -47 120v41h83v-34c0 -32 9.66699 -57.667 29 -77c20 -19.333 46.333 -29 79 -29
c35.333 0 65 12.667 89 38s36 55.333 36 90v12h82v-140c34.667 0.666992 64 13.667 88 39c23.333 24.667 35 54.334 35 89.001v12h82v-511z" />
    <glyph glyph-name="uni0E4F.liga" unicode="&#xe4f;&#x22;" horiz-adv-x="520" 
d="M225 436h-62v173h62v-173zM370 436h-61v173h61v-173zM263 6c26.667 0 51.834 5.16699 75.501 15.5s44.167 24.166 61.5 41.499s31.166 37.833 41.499 61.5s15.5 48.834 15.5 75.501s-5.16699 51.834 -15.5 75.501s-24.166 44.167 -41.499 61.5
s-37.833 31.166 -61.5 41.499s-48.834 15.5 -75.501 15.5s-51.834 -5.16699 -75.501 -15.5s-44.167 -24.166 -61.5 -41.499s-31.166 -37.833 -41.499 -61.5s-15.5 -48.834 -15.5 -75.501s5.16699 -51.834 15.5 -75.501s24.166 -44.167 41.499 -61.5
s37.833 -31.166 61.5 -41.499s48.834 -15.5 75.501 -15.5zM427 200c0 -22.667 -4.33301 -44 -13 -64s-20.334 -37.333 -35.001 -52s-32 -26.334 -52 -35.001s-41.333 -13 -64 -13s-44 4.33301 -64 13s-37.333 20.334 -52 35.001s-26.334 32 -35.001 52s-13 41.333 -13 64
s4.33301 44 13 64s20.334 37.333 35.001 52s32 26.334 52 35.001s41.333 13 64 13s44 -4.33301 64 -13s37.333 -20.334 52 -35.001s26.334 -32 35.001 -52s13 -41.333 13 -64zM263 87c15.333 0 29.833 3 43.5 9s25.667 14 36 24s18.5 21.833 24.5 35.5s9 28.5 9 44.5
c0 15.333 -3 29.833 -9 43.5s-14.167 25.667 -24.5 36s-22.333 18.5 -36 24.5s-28.167 9 -43.5 9c-16 0 -30.833 -3 -44.5 -9s-25.5 -14.167 -35.5 -24.5s-18 -22.333 -24 -36s-9 -28.167 -9 -43.5c0 -16 3 -30.833 9 -44.5s14 -25.5 24 -35.5s21.833 -18 35.5 -24
s28.5 -9 44.5 -9zM347 200c0 -23.333 -8.33301 -43.166 -25 -59.499s-36.334 -24.5 -59.001 -24.5c-23.333 0 -43.166 8.16699 -59.499 24.5s-24.5 36.166 -24.5 59.499c0 22.667 8.16699 42.334 24.5 59.001s36.166 25 59.499 25c22.667 0 42.334 -8.33301 59.001 -25
s25 -36.334 25 -59.001z" />
    <glyph glyph-name="uni0E24.liga" unicode="&#xe24;&#xe32;" horiz-adv-x="870" 
d="M826 -200l-85.001 -0.000976562v533c0 78.667 -36.667 118 -110 118c-59.333 0 -110 -22 -152 -66c4 -14 6 -29 6 -45v-540h-85v533c0 38 -11.333 68 -34 90c-22 21.333 -52.667 32 -92 32c-69.333 0 -118.333 -26.333 -147 -79l56 -67c-25.333 -16.667 -38 -43 -38 -79
v-144c0 -12.667 6 -19 18 -19h36v-67h-68c-20.667 0 -37.667 7.66699 -51 23c-13.333 14.667 -20 33.334 -20 56.001v138c0 43.333 13.333 74 40 92l-57 67c12.667 39.333 39.667 73 81 101c44.667 30 94.334 45 149.001 45c61.333 0 112 -17.333 152 -52
c9.33301 -8.66699 17.666 -17.667 24.999 -27c54.667 52.667 117.667 79 189 79c58.667 0 104.334 -17.333 137.001 -52c33.333 -34.667 50 -82.667 50 -144v-526z" />
    <glyph glyph-name="uni0E26.liga" unicode="&#xe26;&#xe32;" horiz-adv-x="880" 
d="M836 -200l-85.002 0.000976562v533c0 78.667 -36.667 118 -110 118c-58 0 -108 -21 -150 -63c5.33301 -16 8 -33 8 -51v-537h-85v533c0 38 -12 68 -36 90c-23.333 21.333 -54.666 32 -93.999 32c-65.333 0 -112.333 -26.333 -141 -79l56 -67
c-25.333 -16.667 -38 -43 -38 -79v-156c0 -20.667 -6.66699 -38.334 -20 -53.001c-12.667 -14 -28.667 -21 -48 -21h-66v67h31c12 0 18 6.33301 18 19v131c0 43.333 13 74 39 92l-57 67c12.667 40 39 73.667 79 101c43.333 30 92.333 45 147 45
c61.333 0 112.666 -17.667 153.999 -53c8.66699 -8 16.334 -16.333 23.001 -25c54 52 116.667 78 188 78c58.667 0 104.334 -17.333 137.001 -52c33.333 -34.667 50 -82.667 50 -144v-526z" />
    <glyph glyph-name="fi" unicode="fi" horiz-adv-x="580" 
d="M204 0l-81.001 0.000976562v378h-105v66h105v41c0 59.333 9.66699 102.666 29 129.999c22.667 32 62.334 48 119.001 48c8 0 17.667 -0.666992 29 -2c14 -2 22.667 -3 26 -3l-3 -66c-10 3.33301 -23 5 -39 5c-32 0 -54 -10 -66 -30c-9.33301 -15.333 -14 -40.333 -14 -75
v-48h118v-66h-118v-378zM504.999 543.001h-92v92h92v-92zM499.999 0.000976562h-82v444h82v-444z" />
    <glyph glyph-name="fl" unicode="fl" horiz-adv-x="580" 
d="M204 0l-81.001 0.000976562v378h-105v66h105v41c0 59.333 9.66699 102.666 29 129.999c22.667 32 62.334 48 119.001 48c8 0 17.667 -0.666992 29 -2c14 -2 22.667 -3 26 -3l-3 -66c-10 3.33301 -23 5 -39 5c-32 0 -54 -10 -66 -30c-9.33301 -15.333 -14 -40.333 -14 -75
v-48h118v-66h-118v-378zM499.999 0.000976562h-82v653h82v-653z" />
    <glyph glyph-name=".notdef" horiz-adv-x="606" 
 />
    <glyph glyph-name="space" unicode=" " horiz-adv-x="288" 
 />
    <glyph glyph-name="exclam" unicode="!" horiz-adv-x="338" 
d="M218 0h-97v97h97v-97zM207 171h-75l-11 436h97z" />
    <glyph glyph-name="quotedbl" unicode="&#x22;" 
d="M215 394h-77v213h77v-213zM345 394h-76v213h76v-213z" />
    <glyph glyph-name="numbersign" unicode="#" 
d="M285 247l16 113h-103l-15 -113h102zM317 0h-66l25 181h-103l-25 -181h-66l25 181h-83v66h93l15 113h-83v66h93l25 181h66l-25 -181h103l25 181h66l-25 -181h82v-66h-92l-16 -113h83v-66h-92z" />
    <glyph glyph-name="dollar" unicode="$" 
d="M265 -92l-49.998 -0.000976562v82h-11c-45.333 0 -89.333 8.33301 -132 25l11 83c30 -21.333 70 -32 120 -32h12v212l-30 14c-80 37.333 -120 90.666 -120 159.999c0 42.667 14.667 79 44 109c27.333 28.667 62.666 46.334 105.999 53.001v87h50v-83
c42 -0.666992 83.667 -8 125 -22l-12 -80c-28.667 16.667 -63.334 25 -104.001 25h-9v-189l51 -27c68 -36 102 -87.667 102 -155c0 -47.333 -13.667 -86.666 -41 -117.999c-28 -31.333 -65.333 -50.333 -112 -57v-87zM265.002 75.999c40.667 12 61 41.333 61 88
c0 36.667 -20.333 66 -61 88v-176zM215.002 533.999c-38.667 -13.333 -58 -39.667 -58 -79c0 -25.333 19.333 -51 58 -77v156z" />
    <glyph glyph-name="percent" unicode="%" horiz-adv-x="870" 
d="M226 331c36 0 54 37.667 54 113s-18 113 -54 113s-54 -37.667 -54 -113s18 -113 54 -113zM278 -19h-63l377 645h62zM356 444c0 -116 -43.333 -174 -130 -174s-130 58 -130 174s43.333 174 130 174s130 -58 130 -174zM644 51c36 0 54 37.667 54 113s-18 113 -54 113
s-54 -37.667 -54 -113s18 -113 54 -113zM774 164c0 -116 -43.333 -174 -130 -174s-130 58 -130 174s43.333 174 130 174s130 -58 130 -174z" />
    <glyph glyph-name="ampersand" unicode="&#x26;" horiz-adv-x="628" 
d="M227 473c0 -30.667 18 -64.667 54 -102c60.667 26.667 91 62 91 106c0 50 -24 75 -72 75c-20.667 0 -37.667 -6.66699 -51 -20c-14.667 -14 -22 -33.667 -22 -59zM250 285c-57.333 -38.667 -85.999 -78.666 -85.999 -119.999c0 -32.667 12 -59.334 36 -80.001
c23.333 -19.333 51.333 -29 84 -29c41.333 0 78.666 19.333 111.999 58zM600.001 0.000976562l-108 -0.000976562l-50 59c-41.333 -46 -99.333 -69 -174 -69c-60 0 -107.667 15.333 -143 46s-53 71.667 -53 123c0 80.667 45.333 140 136 178c-42 51.333 -63 97.333 -63 138
c0 46.667 15.667 82.667 47 108c28.667 23.333 66 35 112 35c42.667 0 77.667 -11 105 -33c30 -24.667 45 -59.667 45 -105c0 -68 -44.333 -120.667 -133 -158l124 -141c20.667 34 33 83 37 147h82c-6 -77.333 -29.333 -146.666 -70 -207.999z" />
    <glyph glyph-name="quotesingle" unicode="'" horiz-adv-x="242" 
d="M159 394h-76v213h76v-213z" />
    <glyph glyph-name="parenleft" unicode="(" horiz-adv-x="290" 
d="M199 -122c-94.667 146.667 -142 276.667 -142 390c0 110.667 47.333 240.667 142 390h79c-89.333 -155.333 -134 -285.333 -134 -390c0 -110 44.667 -240 134 -390h-79z" />
    <glyph glyph-name="parenright" unicode=")" horiz-adv-x="290" 
d="M12 -122c89.333 161.333 134 291.333 134 390c0 104.667 -44.667 234.667 -134 390h78c95.333 -142.667 143 -272.667 143 -390c0 -116.667 -47.667 -246.667 -143 -390h-78z" />
    <glyph glyph-name="asterisk" unicode="*" 
d="M378 313l-66 -43l-70 120l-71 -120l-65 43l96 107l-139 29l24 74l131 -54l-14 138h80l-13 -138l127 54l23 -74l-137 -29z" />
    <glyph glyph-name="plus" unicode="+" horiz-adv-x="522" 
d="M481 182h-182v-182h-76v182h-182v76h182v182h76v-182h182v-76z" />
    <glyph glyph-name="comma" unicode="," horiz-adv-x="242" 
d="M96 -116h-79l55 213h98z" />
    <glyph glyph-name="hyphen" unicode="-" horiz-adv-x="290" 
d="M257 201h-224v66h224v-66z" />
    <glyph glyph-name="period" unicode="." horiz-adv-x="242" 
d="M170 0h-98v97h98v-97z" />
    <glyph glyph-name="slash" unicode="/" horiz-adv-x="242" 
d="M55 -10h-77l209 628h77z" />
    <glyph glyph-name="zero" unicode="0" 
d="M356 304c0 58 -6.33301 108 -19 150c-20 61.333 -51.667 92 -95 92c-44 0 -75.667 -30.667 -95 -92c-12.667 -41.333 -19 -91.333 -19 -150c0 -162 38 -243 114 -243s114 81 114 243zM408 97c-35.333 -71.333 -90.666 -107 -165.999 -107c-76 0 -131.333 35.667 -166 107
c-26.667 53.333 -40 122.333 -40 207c0 84 13.333 153 40 207c34.667 71.333 90 107 166 107c75.333 0 130.666 -35.667 165.999 -107c26.667 -54 40 -123 40 -207s-13.333 -153 -40 -207z" />
    <glyph glyph-name="one" unicode="1" 
d="M321 0h-87v507l-93 -80l-46 58l149 122h77v-607z" />
    <glyph glyph-name="two" unicode="2" 
d="M428 0l-383.999 -0.000976562v93c58 52 94.667 85.333 110 100c115.333 109.333 173 195 173 257c0 28 -11.333 51 -34 69c-22 18 -49.333 27 -82 27c-45.333 0 -92 -13 -140 -39l-8 75c53.333 24 106.333 36 159 36c56.667 0 103 -14.667 139 -44
c38.667 -31.333 58 -74.333 58 -129c0 -60 -35.333 -129.333 -106 -208c-22.667 -25.333 -81.334 -80.666 -176.001 -165.999h291v-71z" />
    <glyph glyph-name="three" unicode="3" 
d="M287 312c90.667 -18 135.999 -68 135.999 -150c0 -114.667 -79.667 -172 -239 -172c-43.333 0 -90 7.66699 -140 23l6 81c42.667 -22 87 -33 133 -33c38.667 0 71.334 7.66699 98.001 23c33.333 18 50 44.667 50 80c0 77.333 -50.667 116 -152 116h-53v71h49
c38 0 70.667 7.33301 98 22c34.667 17.333 52 43.333 52 78c0 63.333 -39.667 95 -119 95c-47.333 0 -92.333 -11 -135 -33l-5 78c49.333 18 100 27 152 27c58 0 104.667 -13 140 -39c40 -30 60 -72.333 60 -127c0 -36 -13.333 -67 -40 -93
c-24 -23.333 -54.333 -38.333 -91 -45v-2z" />
    <glyph glyph-name="four" unicode="4" 
d="M386 0h-87v138h-282v72l245 397h124v-397h77v-72h-77v-138zM299 210v326l-191 -326h191z" />
    <glyph glyph-name="five" unicode="5" 
d="M73 91c37.333 -20 79.333 -30 126 -30c38.667 0 71.334 10.333 98.001 31c29.333 22.667 44 52.334 44 89.001c0 41.333 -14.333 73.666 -43 96.999c-26.667 22 -61.334 33 -104.001 33c-40 0 -79 -7.66699 -117 -23l5 319h334v-71h-252l-6 -163c20.667 6 47 9 79 9
c54 0 100 -17.667 138 -53c38.667 -36.667 58 -81.667 58 -135c0 -64 -23 -114.667 -69 -152c-42.667 -34.667 -97 -52 -163 -52c-53.333 0 -97 6.66699 -131 20z" />
    <glyph glyph-name="six" unicode="6" 
d="M244 61c34.667 0 61.667 13.0029 81 39.0029c18 24 27 53.667 27 89c0 31.333 -8.33301 58.666 -25 81.999c-18.667 26.667 -44 40 -76 40c-35.333 0 -63.333 -12 -84 -36c-20 -22.667 -30 -51.334 -30 -86.001c0 -32.667 9 -61.334 27 -86.001c20 -28 46.667 -42 80 -42
zM405 521.003c-31.333 16.667 -67.334 24.9971 -108.001 24.9971c-54 0 -96.333 -22.333 -127 -67c-27.333 -39.333 -41.666 -90.666 -42.999 -153.999l2 1c36.667 37.333 81 56 133 56c56.667 0 101.667 -18.333 135 -55c32 -35.333 48 -80.666 48 -135.999
c0 -61.333 -18.667 -110.666 -56 -147.999c-36 -35.333 -82.333 -53 -139 -53c-136.667 0 -205 97 -205 291c0 96 17 172.667 51 230c42 71.333 107 107 195 107c49.333 0 91.333 -6.33301 126 -19z" />
    <glyph glyph-name="seven" unicode="7" 
d="M203 0h-96l231 536h-295v71h384v-71z" />
    <glyph glyph-name="eight" unicode="8" 
d="M135 460c0 -33.333 41.667 -69.999 125 -109.999c53.333 41.333 80 81.333 80 120c0 26 -11.667 45.667 -35 59c-18.667 11.333 -41 17 -67 17c-24 0 -46 -7 -66 -21c-24.667 -16.667 -37 -38.334 -37 -65.001zM190 263.001
c-14.667 -9.33301 -25.667 -17.334 -33 -24.001c-21.333 -19.333 -32 -44.333 -32 -75c0 -31.333 13 -56.666 39 -75.999c23.333 -18 51.333 -27 84 -27c31.333 0 57 8 77 24c21.333 18 32.333 42 33 72c0 37.333 -13.667 66 -41 86c-2 1.33301 -32.333 16 -91 44zM162 321
c-76 25.333 -114.001 75.668 -114.001 151.001c0 40 17.333 74 52 102c36.667 29.333 84.667 44 144 44c57.333 0 103.666 -14.333 138.999 -43c32.667 -26.667 49 -58 49 -94c0 -65.333 -36.333 -117.333 -109 -156c85.333 -31.333 128 -85 128 -161
c0 -58 -21 -102.333 -63 -133c-37.333 -27.333 -86.666 -41 -147.999 -41c-55.333 0 -102.666 14.333 -141.999 43c-43.333 31.333 -65 73.333 -65 126c0 77.333 43 130.666 129 159.999v2z" />
    <glyph glyph-name="nine" unicode="9" 
d="M131 418c0 -31.333 8.66602 -58.335 25.999 -81.002c18.667 -26.667 44 -40 76 -40c35.333 0 63.333 11.667 84 35c19.333 22.667 29 51.334 29 86.001c0 32.667 -8.66699 61.334 -26 86.001c-20.667 28 -47.667 42 -81 42c-35.333 0 -62.666 -13 -81.999 -39
c-17.333 -23.333 -26 -53 -26 -89zM354.999 280.998c-37.333 -37.333 -81.666 -56 -132.999 -56c-56.667 0 -101.667 18.667 -135 56c-32 34.667 -48 80 -48 136c0 61.333 18.667 110.666 56 147.999c36 35.333 82.333 53 139 53c136 0 204 -97.333 204 -292
c0 -95.333 -17 -171.666 -51 -228.999c-41.333 -71.333 -106.333 -107 -195 -107c-56.667 0 -98.334 6.33301 -125.001 19l12 77c31.333 -16.667 67.333 -25 108 -25c53.333 0 95.333 22.333 126 67c28 40 42.667 91.333 44 154z" />
    <glyph glyph-name="colon" unicode=":" horiz-adv-x="242" 
d="M170 0h-98v97h98v-97zM170 346h-98v98h98v-98z" />
    <glyph glyph-name="semicolon" unicode=";" horiz-adv-x="242" 
d="M170 346h-98v98h98v-98zM96 -116h-79l55 213h98z" />
    <glyph glyph-name="less" unicode="&#x3c;" horiz-adv-x="522" 
d="M482 -7l-442 194v66l442 194v-76l-343 -151l343 -150v-77z" />
    <glyph glyph-name="equal" unicode="=" horiz-adv-x="522" 
d="M481 90h-440v77h440v-77zM481 273h-440v77h440v-77z" />
    <glyph glyph-name="greater" unicode="&#x3e;" horiz-adv-x="522" 
d="M482 187l-442 -194v77l343 150l-343 151v76l442 -194v-66z" />
    <glyph glyph-name="question" unicode="?" horiz-adv-x="435" 
d="M267 0h-97v97h97v-97zM259 171h-81.998v18c0 44 18 87 54 129c49.333 57.333 74 102.333 74 135c0 28.667 -10.667 51 -32 67c-19.333 14 -44 21 -74 21c-54 0 -97 -11.667 -129 -35l-6 83c47.333 19.333 95.666 29 144.999 29c50.667 0 93.667 -13.333 129 -40
c39.333 -29.333 59 -69 59 -119c0 -36.667 -14 -74 -42 -112c-6.66699 -8.66699 -19.667 -24.667 -39 -48c-16.667 -20 -29.334 -36.333 -38.001 -49c-12.667 -18.667 -19 -40 -19 -64v-15z" />
    <glyph glyph-name="at" unicode="@" horiz-adv-x="696" 
d="M625 128c-60 -92 -146.333 -137.999 -259 -137.999c-93.333 0 -169.333 27.333 -228 82c-62.667 57.333 -94 134.666 -94 231.999c0 92.667 31.333 168.667 94 228c60 57.333 134.667 86 224 86c78.667 0 146.334 -24 203.001 -72c58.667 -50 88 -112.333 88 -187
c0 -74 -26.333 -135 -79 -183c-42.667 -39.333 -85.334 -59 -128.001 -59c-30 0 -46.667 16.333 -50 49h-2c-31.333 -32.667 -63 -49 -95 -49c-36 0 -66.333 13.667 -91 41s-37 60.333 -37 99c0 57.333 16.667 107.333 50 150c36 45.333 81.667 68 137 68
c42 0 75 -19 99 -57l13 45h65l-58 -221c-4.66699 -15.333 -7 -27.666 -7 -36.999c1.33301 -14 6.33301 -21 15 -21c26 0 50 16 72 48c23.333 33.333 35 71.333 35 114c0 65.333 -22.667 117.666 -68 156.999c-42.667 36 -97 54 -163 54c-72.667 0 -132 -24.667 -178 -74
c-45.333 -48.667 -68 -109 -68 -181c0 -80 24 -142.333 72 -187c46 -43.333 107 -65 183 -65c78 0 141 26 189 78h66zM318 189.001c31.333 0 58.334 16.001 81.001 48.001c20.667 29.333 31 60.666 31 93.999c0 20.667 -6.66699 38 -20 52c-12.667 14 -28.334 21 -47.001 21
c-32.667 0 -60.667 -15.333 -84 -46c-21.333 -28 -32 -58 -32 -90c0 -24 6.33301 -43 19 -57c12.667 -14.667 30 -22 52 -22z" />
    <glyph glyph-name="A" unicode="A" horiz-adv-x="628" 
d="M433 224l-121 301l-121 -301h242zM618 0h-95l-62 153h-297l-62 -153h-92l260 607h91z" />
    <glyph glyph-name="B" unicode="B" horiz-adv-x="532" 
d="M207 348c51.333 0 88 5 110 15c30.667 14.667 46 42 46 82c0 60.667 -37.333 91 -112 91h-92v-188h48zM224 71c99.333 0 149 33 149 99c0 71.333 -52.333 107 -157 107h-57v-206h65zM72 0v607h165c142 0 213 -51 213 -153c0 -74 -41.667 -122 -125 -144v-2
c42 -4 75.667 -18.667 101 -44c26 -26.667 39 -60.667 39 -102c0 -108 -77 -162 -231 -162h-162z" />
    <glyph glyph-name="C" unicode="C" horiz-adv-x="532" 
d="M505 11c-34.667 -14 -81.001 -20.999 -139.001 -20.999c-96.667 0 -174 28.667 -232 86c-58.667 57.333 -88 134 -88 230c0 93.333 30.333 169 91 227c60 56.667 136.667 85 230 85c51.333 0 97 -8.66699 137 -26l-7 -85c-38.667 22.667 -80.667 34 -126 34
c-69.333 0 -125.666 -22.333 -168.999 -67c-42.667 -44.667 -64 -101.334 -64 -170.001c0 -70 22.667 -127.667 68 -173c43.333 -43.333 97 -65 161 -65c56.667 0 100.667 10 132 30z" />
    <glyph glyph-name="D" unicode="D" horiz-adv-x="628" 
d="M251 77c154.667 0 232 76 232 228c0 68.667 -21.333 124 -64 166c-41.333 40 -94 60 -158 60h-102v-454h92zM72 0v607h179c93.333 0 170 -26.333 230 -79c62.667 -54.667 94 -127.667 94 -219c0 -100.667 -29 -177.667 -87 -231c-56 -52 -135 -78 -237 -78h-179z" />
    <glyph glyph-name="E" unicode="E" 
d="M422 0h-340v607h340v-76h-253v-178h230v-76h-230v-200h253v-77z" />
    <glyph glyph-name="F" unicode="F" horiz-adv-x="435" 
d="M159 0h-87v607h323v-76h-236v-178h226v-76h-226v-277z" />
    <glyph glyph-name="G" unicode="G" horiz-adv-x="628" 
d="M552 17c-52.667 -18 -114.667 -27 -186 -27c-96.667 0 -174 28.667 -232 86c-58.667 57.333 -88 134 -88 230c0 93.333 30.333 169 91 227c60 56.667 136.667 85 230 85c47.333 0 106.666 -10.333 177.999 -31l-6 -88c-44 28 -100 42 -168 42
c-69.333 0 -125.666 -22.667 -168.999 -68c-42.667 -44.667 -64 -101 -64 -169c0 -70 22.667 -127.667 68 -173c43.333 -43.333 97 -65 161 -65c33.333 0 66 3.66699 98 11v184h-128v71h215v-315z" />
    <glyph glyph-name="H" unicode="H" horiz-adv-x="628" 
d="M546 0h-87v277h-290v-277h-87v607h87v-254h290v254h87v-607z" />
    <glyph glyph-name="I" unicode="I" horiz-adv-x="242" 
d="M164 0h-87v607h87v-607z" />
    <glyph glyph-name="J" unicode="J" horiz-adv-x="338" 
d="M259 157c0 -111.333 -56.666 -167 -169.999 -167c-30 0 -53.667 3.33301 -71 10v75c17.333 -6 35.666 -9 54.999 -9c37.333 0 64 10.667 80 32c12.667 18 19 46.667 19 86v423h87v-450z" />
    <glyph glyph-name="K" unicode="K" horiz-adv-x="580" 
d="M566 0h-127l-270 298v-298h-87v607h87v-267l259 267h116l-286 -287z" />
    <glyph glyph-name="L" unicode="L" horiz-adv-x="435" 
d="M418 0h-341v607h87v-530h254v-77z" />
    <glyph glyph-name="M" unicode="M" horiz-adv-x="821" 
d="M743 0h-87v525h-2l-201 -525h-85l-201 525h-2v-525h-87v607h144l190 -504l187 504h144v-607z" />
    <glyph glyph-name="N" unicode="N" horiz-adv-x="628" 
d="M552 0h-112l-275 499h-1v-499h-87v607h118l268 -489h2v489h87v-607z" />
    <glyph glyph-name="O" unicode="O" horiz-adv-x="677" 
d="M555 77c-52.667 -58 -125 -87 -217 -87c-91.333 0 -163 29 -215 87c-51.333 56.667 -77 132.334 -77 227.001c0 92 25.667 166.667 77 224c53.333 60 125 90 215 90c90.667 0 162.667 -30 216 -90c51.333 -57.333 77 -132 77 -224
c0 -94.667 -25.333 -170.334 -76 -227.001zM338 66c65.333 0 116.333 24.333 153 73c32 43.333 48 98.333 48 165c0 66 -16.667 121 -50 165c-36.667 48 -87 72 -151 72c-63.333 0 -113.333 -24 -150 -72c-33.333 -44 -50 -99 -50 -165c0 -66.667 16 -121.667 48 -165
c36 -48.667 86.667 -73 152 -73z" />
    <glyph glyph-name="P" unicode="P" 
d="M159 0h-87v607h159c152 0 228 -60.667 228 -182c0 -62.667 -22 -109.667 -66 -141c-38 -27.333 -87.667 -41 -149 -41h-85v-243zM245 319c32 0 59.333 8 82 24c26.667 19.333 40 47 40 83c0 34.667 -15.667 61.667 -47 81c-25.333 16 -54.333 24 -87 24h-74v-212h86z" />
    <glyph glyph-name="Q" unicode="Q" horiz-adv-x="677" 
d="M608 -112l-108 -0.000976562l-113 105c-10.667 -2 -27 -3 -49 -3c-91.333 0 -163 29 -215 87c-51.333 56.667 -77 132.334 -77 227.001c0 92 25.667 166.667 77 224c53.333 60 125 90 215 90c90.667 0 162.667 -30 216 -90c51.333 -57.333 77 -132 77 -224
c0 -145.333 -54.667 -241.333 -164 -288zM338 65.999c65.333 0 116.333 24.333 153 73c32 43.333 48 98.333 48 165c0 66 -16.667 121 -50 165c-36.667 48 -87 72 -151 72c-63.333 0 -113.333 -24 -150 -72c-33.333 -44 -50 -99 -50 -165c0 -66.667 16 -121.667 48 -165
c36 -48.667 86.667 -73 152 -73z" />
    <glyph glyph-name="R" unicode="R" horiz-adv-x="532" 
d="M233 346c88 0 132 31.667 132 95c0 60 -40.667 90 -122 90h-84v-185h74zM505 0l-98.999 -0.00195312l-93 211c-12 26.667 -26 44 -42 52c-10.667 4.66699 -30.667 7 -60 7h-52v-270h-87v607h149c73.333 0 127.666 -9.33301 162.999 -28
c48.667 -25.333 73 -70.666 73 -135.999c0 -36.667 -12 -67.667 -36 -93c-23.333 -24.667 -53.333 -39.667 -90 -45v-2c23.333 -9.33301 43.333 -29.666 60 -60.999z" />
    <glyph glyph-name="S" unicode="S" horiz-adv-x="435" 
d="M57 96c43.333 -20 85.332 -30 125.999 -30c29.333 0 55.333 7.66699 78 23c27.333 18.667 41 44 41 76c0 30 -13.667 55.333 -41 76c-12 9.33301 -41.667 25.333 -89 48c-42 20 -72 39.333 -90 58c-27.333 28 -41 63 -41 105c0 52 19 93 57 123
c35.333 28.667 81.333 43 138 43c46 0 89 -7.33301 129 -22l-12 -80c-43.333 16.667 -81.333 25 -114 25c-70.667 0 -106 -27 -106 -81c0 -25.333 13.667 -47.333 41 -66c7.33301 -5.33301 37.333 -21.333 90 -48c86.667 -44 130 -102.333 130 -175
c0 -62 -21.667 -108.667 -65 -140c-38.667 -27.333 -91 -41 -157 -41c-31.333 0 -72.666 8.33301 -123.999 25z" />
    <glyph glyph-name="T" unicode="T" 
d="M285 0h-87v531h-188v76h464v-76h-189v-531z" />
    <glyph glyph-name="U" unicode="U" horiz-adv-x="628" 
d="M550 251c0 -85.333 -20.333 -150.333 -61 -195c-40.667 -44 -99 -66 -175 -66s-134.333 22 -175 66c-40.667 44.667 -61 109.667 -61 195v356h87v-344c0 -131.333 49.667 -197 149 -197s149 65.667 149 197v344h87v-356z" />
    <glyph glyph-name="V" unicode="V" horiz-adv-x="580" 
d="M343 0h-109l-229 607h98l187 -530h1l193 530h91z" />
    <glyph glyph-name="W" unicode="W" horiz-adv-x="870" 
d="M681 0h-112l-132 531h-2l-133 -531h-117l-183 607h95l146 -520h1l130 520h124l131 -520h2l145 520h92z" />
    <glyph glyph-name="X" unicode="X" horiz-adv-x="580" 
d="M573 0h-109l-180 258l-173 -258h-104l224 316l-204 291h104l162 -233l161 233h99l-204 -289z" />
    <glyph glyph-name="Y" unicode="Y" horiz-adv-x="580" 
d="M334 0h-87v254l-237 353h101l181 -272l177 272h102l-237 -353v-254z" />
    <glyph glyph-name="Z" unicode="Z" 
d="M448 0h-420v78l315 453h-305v76h405v-78l-314 -452h319v-77z" />
    <glyph glyph-name="bracketleft" unicode="[" horiz-adv-x="290" 
d="M247 -122h-164v780h164v-61h-88v-658h88v-61z" />
    <glyph glyph-name="backslash" unicode="\" horiz-adv-x="242" 
d="M264 -10h-77l-209 628h77z" />
    <glyph glyph-name="bracketright" unicode="]" horiz-adv-x="290" 
d="M207 -122h-164v61h88v658h-88v61h164v-780z" />
    <glyph glyph-name="asciicircum" unicode="^" horiz-adv-x="522" 
d="M470 256h-78l-131 271l-130 -271h-79l173 351h72z" />
    <glyph glyph-name="underscore" unicode="_" horiz-adv-x="435" 
d="M435 -109h-435v44h435v-44z" />
    <glyph glyph-name="grave" unicode="`" horiz-adv-x="242" 
d="M178 505h-58l-114 126h95z" />
    <glyph glyph-name="a" unicode="a" 
d="M333 211l-52 2c-102.667 0 -154 -28.333 -154 -85c0 -22 9 -40 27 -54c16 -12 34.667 -18 56 -18c39.333 0 70 11.333 92 34c20.667 20.667 31 48 31 82v39zM342 0v57h-2c-30 -44.667 -75.667 -67 -137 -67c-108.667 0 -163 46 -163 138c0 50 24 88 72 114
c38 21.333 82.667 32 134 32h44c7.33301 0 21.666 -0.666992 42.999 -2c0 40 -8 69 -24 87c-17.333 19.333 -45.666 29 -84.999 29c-50.667 0 -93.667 -15 -129 -45l-5 69c46 28 95 42 147 42c118.667 0 178 -61 178 -183v-184c0 -32 1 -61 3 -87h-76z" />
    <glyph glyph-name="b" unicode="b" horiz-adv-x="532" 
d="M282 56c40.667 0 72.332 19 94.999 57c18.667 32 28 69 28 111c0 44.667 -9.33301 81.667 -28 111c-21.333 35.333 -52.666 53 -93.999 53c-42 0 -75 -17.333 -99 -52c-22 -31.333 -33 -69.666 -33 -114.999c0 -42.667 10.333 -79.334 31 -110.001
c24 -36.667 57.333 -55 100 -55zM147.998 0l-78 -0.000976562v653h81v-270h2c29.333 47.333 78.333 71 147 71c61.333 0 109.333 -22.333 144 -67c32 -41.333 48 -93.666 48 -156.999c0 -68 -15 -123.333 -45 -166c-34 -49.333 -82.667 -74 -146 -74
c-74 0 -124.333 24.333 -151 73h-2v-63z" />
    <glyph glyph-name="c" unicode="c" horiz-adv-x="386" 
d="M362 8c-24.667 -12 -59.0029 -17.999 -103.003 -17.999c-65.333 0 -119.666 22.667 -162.999 68c-42 44 -63 98.667 -63 164c0 68 20.667 123.667 62 167c42 43.333 96.667 65 164 65c37.333 0 70.333 -5.66699 99 -17l-7 -68c-32.667 12.667 -62 19 -88 19
c-43.333 0 -78.666 -17 -105.999 -51c-24.667 -32 -37 -70.333 -37 -115s11.667 -82.334 35 -113.001c26.667 -35.333 64.334 -53 113.001 -53c32.667 0 62 8.33301 88 25z" />
    <glyph glyph-name="d" unicode="d" horiz-adv-x="532" 
d="M250 56c42.667 0 76 18.333 100 55c20 30.667 30 67.334 30 110.001c0 45.333 -10.667 83.666 -32 114.999c-24.667 34.667 -57.667 52 -99 52c-40.667 0 -72 -17.333 -94 -52c-18.667 -30 -28 -67.333 -28 -112c0 -41.333 9.66699 -78.333 29 -111
c22.667 -38 54 -57 94 -57zM462 0l-78.002 0.00195312v63h-2c-29.333 -48.667 -79.666 -73 -150.999 -73c-63.333 0 -112 24.667 -146 74c-30 43.333 -45 98.666 -45 165.999c0 63.333 16 115.666 48 156.999c34.667 44.667 82.334 67 143.001 67
c68.667 0 117.667 -23.667 147 -71h2v270h82v-653z" />
    <glyph glyph-name="e" unicode="e" 
d="M357 264c0 35.333 -9.66699 64.667 -29 88c-20.667 24 -48 36 -82 36c-68 0 -107.667 -41.333 -119 -124h230zM410 18.001c-56 -18.667 -102.667 -27.999 -140 -27.999c-76.667 0 -134.667 22 -174 66c-37.333 41.333 -56 99.333 -56 174c0 66 19 119.667 57 161
c38.667 42 89 63 151 63c130.667 0 196 -83.333 196 -250h-317c0 -42.667 14.667 -78.334 44 -107.001c28.667 -27.333 62.667 -41 102 -41c51.333 0 97 14.667 137 44v-82z" />
    <glyph glyph-name="f" unicode="f" horiz-adv-x="338" 
d="M204 0l-81.001 0.000976562v378h-105v66h105v41c0 59.333 9.66699 102.666 29 129.999c22.667 32 62.334 48 119.001 48c8 0 17.667 -0.666992 29 -2c14 -2 22.667 -3 26 -3l-3 -66c-10 3.33301 -23 5 -39 5c-32 0 -54 -10 -66 -30c-9.33301 -15.333 -14 -40.333 -14 -75
v-48h118v-66h-118v-378z" />
    <glyph glyph-name="g" unicode="g" horiz-adv-x="532" 
d="M251 66c37.333 0 68.333 14.667 93 44c24 29.333 36 65 36 107c0 48.667 -10.667 88.667 -32 120c-23.333 34 -55.666 51 -96.999 51c-38.667 0 -69.667 -18 -93 -54c-20.667 -32 -31 -69 -31 -111c0 -43.333 11 -80 33 -110c23.333 -31.333 53.666 -47 90.999 -47z
M462 19c0 -141.333 -76.333 -212.001 -229 -212.001c-46 0 -99 10 -159 30l9 76c62 -26.667 115.333 -40 160 -40c43.333 0 77 13.667 101 41s36 64.333 36 111v44h-2c-34 -46 -83.333 -69 -148 -69c-60.667 0 -108.334 22 -143.001 66c-31.333 40 -47 90.667 -47 152
c0 62.667 16.333 116.334 49 161.001c36.667 50 86.334 75 149.001 75c71.333 0 120.333 -25.333 147 -76h1v66h76v-425z" />
    <glyph glyph-name="h" unicode="h" horiz-adv-x="532" 
d="M462 0h-81.999v230c0 54 -6.66699 93 -20 117c-14.667 25.333 -39.334 39 -74.001 41c-90 0 -135 -61 -135 -183v-205h-81v653h81v-273h2c32 49.333 79.667 74 143 74c110.667 0 166 -63.333 166 -190v-264z" />
    <glyph glyph-name="i" unicode="i" horiz-adv-x="242" 
d="M167 543h-92v92h92v-92zM162 0h-82v444h82v-444z" />
    <glyph glyph-name="j" unicode="j" horiz-adv-x="242" 
d="M167 543h-92v92h92v-92zM162 -16c0 -50 -5.66699 -87.333 -17 -112c-18.667 -43.333 -54.667 -65 -108 -65c-10 0 -27 1 -51 3l3 71c7.33301 -2 18.333 -3 33 -3c38.667 0 58 31.333 58 94v472h82v-460z" />
    <glyph glyph-name="k" unicode="k" 
d="M467 0h-117l-199 228v-228h-81v653h81v-389l179 180h111l-206 -197z" />
    <glyph glyph-name="l" unicode="l" horiz-adv-x="242" 
d="M162 0h-82v653h82v-653z" />
    <glyph glyph-name="m" unicode="m" horiz-adv-x="773" 
d="M706 0h-82v264c0 82.667 -26.333 124 -79 124c-39.333 0 -69.333 -17 -90 -51c-18 -29.333 -27 -67 -27 -113v-224h-82v264c0 82.667 -26.333 124 -79 124c-39.333 0 -69 -17 -89 -51c-18 -29.333 -27 -67 -27 -113v-224h-82v444h76v-65h2c30.667 50 77.667 75 141 75
c62 0 104 -28.667 126 -86c13.333 28.667 35 51 65 67c24.667 12.667 49 19 73 19c102.667 0 154 -56.667 154 -170v-284z" />
    <glyph glyph-name="n" unicode="n" horiz-adv-x="532" 
d="M462 0h-81.999v230c0 54 -6.66699 93 -20 117c-14.667 25.333 -39.334 39 -74.001 41c-90 0 -135 -61 -135 -183v-205h-81v444h79v-71h2c24.667 54 73 81 145 81c110.667 0 166 -63.333 166 -190v-264z" />
    <glyph glyph-name="o" unicode="o" horiz-adv-x="532" 
d="M266 56c44.667 0 79.667 17.668 105 53.001c22.667 31.333 34 69 34 113c0 44.667 -12.333 83 -37 115c-26.667 34 -60.667 51 -102 51s-75.333 -17 -102 -51c-24.667 -32 -37 -70.333 -37 -115s11.333 -82.334 34 -113.001c25.333 -35.333 60.333 -53 105 -53z
M429 58.001c-43.333 -45.333 -97.668 -68 -163.001 -68s-119.666 22.667 -162.999 68c-42 44 -63 98.667 -63 164c0 68 20.667 123.667 62 167c42 43.333 96.667 65 164 65s122 -21.667 164 -65c41.333 -43.333 62 -99 62 -167c0 -65.333 -21 -120 -63 -164z" />
    <glyph glyph-name="p" unicode="p" horiz-adv-x="532" 
d="M282 56c40.667 0 72.332 19 94.999 57c18.667 32 28 69 28 111c0 44.667 -9.33301 81.667 -28 111c-21.333 35.333 -52.666 53 -93.999 53c-42 0 -75 -17.333 -99 -52c-22 -31.333 -33 -69.666 -33 -114.999c0 -42.667 10.333 -79.334 31 -110.001
c24 -36.667 57.333 -55 100 -55zM150.998 -183l-81 -0.000976562v627h78v-63h2c28.667 48.667 78.667 73 150 73c61.333 0 109.333 -22.333 144 -67c32 -41.333 48 -93.666 48 -156.999c0 -68 -15 -123.333 -45 -166c-34 -49.333 -82.667 -74 -146 -74
c-70 0 -119.333 23.667 -148 71h-2v-244z" />
    <glyph glyph-name="q" unicode="q" horiz-adv-x="532" 
d="M250 56c42.667 0 76 18.333 100 55c20 30.667 30 67.334 30 110.001c0 45.333 -10.667 83.666 -32 114.999c-24.667 34.667 -57.667 52 -99 52c-40.667 0 -72 -17.333 -94 -52c-18.667 -30 -28 -67.333 -28 -112c0 -41.333 9.66699 -78.333 29 -111
c22.667 -38 54 -57 94 -57zM462 -183l-82.001 0.00195312v241h-2c-27.333 -45.333 -76.333 -68 -147 -68c-63.333 0 -112 24.667 -146 74c-30 43.333 -45 98.666 -45 165.999c0 63.333 16 115.666 48 156.999c34.667 44.667 82.334 67 143.001 67
c70 0 120.333 -24.667 151 -74h2v64h78v-627z" />
    <glyph glyph-name="r" unicode="r" horiz-adv-x="338" 
d="M151 0h-81.001v444h76v-69h2c23.333 52.667 62 79 116 79c19.333 0 37.333 -2 54 -6v-73c-17.333 5.33301 -32.666 8 -45.999 8c-36 0 -65 -16.333 -87 -49c-22.667 -32.667 -34 -76.667 -34 -132v-202z" />
    <glyph glyph-name="s" unicode="s" horiz-adv-x="338" 
d="M37 87c31.333 -20.667 65 -31 101 -31c56 0 84 21 84 63c0 18 -10 34 -30 48c-7.33301 5.33301 -29.333 17 -66 35c-64 32 -96 70.667 -96 116c0 44.667 15 79 45 103c27.333 22 64.333 33 111 33c28 0 62 -5.66699 102 -17l-7 -72c-21.333 15.333 -50 23 -86 23
c-52 0 -78 -18 -78 -54c0 -20 10 -37 30 -51c7.33301 -4.66699 29.333 -15.667 66 -33c64 -30 96 -70.667 96 -122c0 -45.333 -16 -80.333 -48 -105c-28 -22 -63.667 -33 -107 -33c-52 0 -92.667 8 -122 24z" />
    <glyph glyph-name="t" unicode="t" horiz-adv-x="338" 
d="M312 2c-22 -8 -45 -11.999 -69 -11.999c-91.333 0 -137 42.667 -137 128v260h-100v66h100v102l82 26v-128h117v-66h-117v-243c0 -24.667 7 -44.334 21 -59.001c12.667 -13.333 28.667 -20 48 -20c22 0 40.333 5 55 15v-69z" />
    <glyph glyph-name="u" unicode="u" horiz-adv-x="532" 
d="M462 0h-79.002v70h-2c-25.333 -53.333 -73.666 -80 -144.999 -80c-110.667 0 -166 63.333 -166 190v264h81v-230c0 -54 6.66699 -92.667 20 -116c14.667 -26 39.334 -40 74.001 -42c90 0 135 60.667 135 182v206h82v-444z" />
    <glyph glyph-name="v" unicode="v" horiz-adv-x="435" 
d="M266 0h-97l-159 444h89l120 -362h2l123 362h81z" />
    <glyph glyph-name="w" unicode="w" horiz-adv-x="725" 
d="M572 0h-95l-115 372h-2l-112 -372h-95l-143 444h90l102 -367h2l113 367h96l112 -367h1l108 367h80z" />
    <glyph glyph-name="x" unicode="x" horiz-adv-x="435" 
d="M426 0h-101l-109 174l-110 -174h-97l160 232l-145 212h102l97 -159l98 159h91l-142 -212z" />
    <glyph glyph-name="y" unicode="y" horiz-adv-x="435" 
d="M254 -20c-20.667 -56.667 -39.001 -95.6689 -55.001 -117.002c-28 -37.333 -65.333 -56 -112 -56c-22 0 -40.667 2 -56 6l6 67c10.667 -4.66699 23.334 -7 38.001 -7c30.667 0 56 17 76 51c14 24.667 21 44.334 21 59.001c-0.666992 6.66699 -5.66699 22.334 -15 47.001
l-151 414h90l119 -367h2l121 367h83z" />
    <glyph glyph-name="z" unicode="z" horiz-adv-x="435" 
d="M398 0h-361v71l256 307h-243v66h338v-72l-256 -306h266v-66z" />
    <glyph glyph-name="braceleft" unicode="{" horiz-adv-x="290" 
d="M273 -122l-68 0.00488281c-23.333 0 -44.666 9.33301 -63.999 28c-22.667 21.333 -34 48.666 -34 81.999v158c0 28 -8 50.667 -24 68c-14.667 16 -31.667 24 -51 24v60c18.667 0 35.667 7.66699 51 23c16 17.333 24 38.666 24 63.999v163
c0 33.333 11.333 60.666 34 81.999c19.333 18.667 40.666 28 63.999 28h68v-61h-46c-28.667 0 -43 -22 -43 -66v-158c0 -56.667 -26.667 -91.334 -80 -104.001v-2c18 -2.66699 34 -10.334 48 -23.001c21.333 -19.333 32 -47.333 32 -84v-155c0 -44 14.333 -66 43 -66h46v-61
z" />
    <glyph glyph-name="bar" unicode="|" horiz-adv-x="193" 
d="M135 -218h-77v871h77v-871z" />
    <glyph glyph-name="braceright" unicode="}" horiz-adv-x="290" 
d="M183 -12c0 -33.333 -11 -60.6699 -33 -82.0029c-20 -18.667 -42 -28 -66 -28h-67v61h46c28.667 0 43 22 43 66v158c0 58 26.667 92.667 80 104v2c-53.333 6.66699 -80 42.334 -80 107.001v155c0 44 -14.333 66 -43 66h-46v61h67c24 0 46 -9.33301 66 -28
c22 -21.333 33 -48.666 33 -81.999v-158c0 -28 8 -50.667 24 -68c14.667 -16 31.667 -24 51 -24v-60c-18.667 0 -35.667 -7.66699 -51 -23c-16 -17.333 -24 -38.666 -24 -63.999v-163z" />
    <glyph glyph-name="asciitilde" unicode="~" horiz-adv-x="522" 
d="M462 229c-24 -49.333 -60.333 -74 -109 -74c-21.333 0 -54 10 -98 30c-44 19.333 -73 29 -87 29c-20.667 0 -46.334 -21 -77.001 -63l-31 60c24 49.333 60.333 74 109 74c22 0 55 -9.66699 99 -29c44 -20 72.667 -30 86 -30c22.667 0 48.334 21.333 77.001 64z" />
    <glyph glyph-name="uni007F" horiz-adv-x="500" 
 />
    <glyph glyph-name="nonbreakingspace" unicode="&#xa0;" horiz-adv-x="288" 
 />
    <glyph glyph-name="exclamdown" unicode="&#xa1;" horiz-adv-x="338" 
d="M218 346h-97v98h97v-98zM218 -164h-97l11 437h75z" />
    <glyph glyph-name="cent" unicode="&#xa2;" 
d="M406 8c-24.667 -12 -58.666 -18 -101.999 -18c-26 0 -49 3.33301 -69 10l-34 -116h-50l40 136c-76 42 -114 109.333 -114 202c0 68 21 123.667 63 167s96.667 65 164 65h5c2.66699 0 5 -0.333008 7 -1l29 99h49l-30 -104c22 -5.33301 35 -9 39 -11l-7 -68
c-16.667 7.33301 -33.667 12.333 -51 15l-91 -318c21.333 -6.66699 40.666 -10 57.999 -10c32.667 0 62 8.33301 88 25zM297.001 387c-40.667 -2.66699 -73.333 -20.667 -98 -54c-23.333 -31.333 -35 -68.333 -35 -111c0 -52.667 16 -95 48 -127z" />
    <glyph glyph-name="sterling" unicode="&#xa3;" 
d="M432 0l-380.999 -0.000976562v77h80v226h-69v50h69v49c0 64.667 17.667 116.334 53 155.001c37.333 40.667 89.666 61 156.999 61c34.667 0 69 -5.66699 103 -17l-7 -81c-30.667 14 -59.667 21 -87 21c-88 0 -132 -48.333 -132 -145v-43h140v-50h-140v-226h214v-77z" />
    <glyph glyph-name="currency" unicode="&#xa4;" 
d="M242 159c38.667 0 71.666 14.666 98.999 43.999c26.667 28.667 40 62.334 40 101.001c0 39.333 -13.333 73 -40 101c-27.333 28.667 -60.333 43 -99 43s-71.667 -14.333 -99 -43c-26.667 -28 -40 -61.667 -40 -101c0 -40.667 13.667 -75 41 -103
c26.667 -28 59.334 -42 98.001 -42zM462.999 126.999l-44.001 -43.999l-47 49c-33.333 -29.333 -76.666 -44 -129.999 -44c-52.667 0 -95.667 14.667 -129 44l-48 -49l-44 44l49 50c-29.333 33.333 -44 75.666 -44 126.999c0 54 14.667 96.667 44 128l-49 47l44 46l48 -48
c34 28 77 42 129 42c50.667 0 94 -14 130 -42l47 48l44 -46l-47 -47c28 -30.667 42 -73.334 42 -128.001c0 -51.333 -14 -93.666 -42 -126.999z" />
    <glyph glyph-name="yen" unicode="&#xa5;" 
d="M286 0h-87v141h-122v50h122v63l-7 14h-115v50h87l-159 289h97l142 -272l138 272h97l-158 -289h88v-50h-116l-7 -14v-63h123v-50h-123v-141z" />
    <glyph glyph-name="brokenbar" unicode="&#xa6;" horiz-adv-x="193" 
d="M135 -152h-77v304h77v-304zM135 283h-77v304h77v-304z" />
    <glyph glyph-name="section" unicode="&#xa7;" 
d="M268 188c22.667 -7.33301 37.333 -12.666 44 -15.999c21.333 25.333 32 47.333 32 66c0 29.333 -21.333 53.666 -64 72.999c-10 4 -28 10.667 -54 20c-21.333 8 -36 14.333 -44 19c-21.333 -17.333 -32 -40 -32 -68c0 -28.667 21.333 -53 64 -73
c12.667 -6 30.667 -13 54 -21zM84.999 -6c38.667 -20.667 86.667 -30.999 144 -30.999c27.333 0 50.666 6.33301 69.999 19c22 15.333 33 35.666 33 60.999c0 20 -13.333 36.667 -40 50c-5.33301 2.66699 -35 14 -89 34c-86.667 31.333 -130 77.333 -130 138
c0 47.333 21.333 83.333 64 108c-40 23.333 -60 58 -60 104c0 44.667 20 80.334 60 107.001c34 22.667 74.667 34 122 34c40 0 82 -5.66699 126 -17l-8 -79c-39.333 16 -74.666 24 -105.999 24c-75.333 0 -113 -22 -113 -66c0 -22.667 13.667 -41.334 41 -56.001
c10 -6 40 -17.667 90 -35c87.333 -31.333 131 -76.333 131 -135c0 -39.333 -20.667 -76 -62 -110c37.333 -22.667 56 -55.667 56 -99c0 -50.667 -22 -90 -66 -118c-36.667 -23.333 -80 -35 -130 -35c-52 0 -99 7.33301 -141 22z" />
    <glyph glyph-name="dieresis" unicode="&#xa8;" horiz-adv-x="242" 
d="M233 512h-82v87h82v-87zM90 512h-81v87h81v-87z" />
    <glyph glyph-name="copyright" unicode="&#xa9;" horiz-adv-x="696" 
d="M348 50c66 0 122 24 168 72c46.667 48.667 70 109.334 70 182.001c0 72 -23.333 132.333 -70 181c-46 48 -102 72 -168 72s-122 -24 -168 -72c-46.667 -48.667 -70 -109 -70 -181c0 -72.667 23.333 -133.334 70 -182.001c46 -48 102 -72 168 -72zM348 618
c86 0 160.001 -30.667 222.001 -92c61.333 -62 92 -136 92 -222c0 -87.333 -30.667 -161.666 -92 -222.999c-61.333 -60.667 -135.333 -91 -222 -91s-160.334 30.333 -221.001 91c-62 61.333 -93 135.666 -93 222.999c0 86 31 160 93 222c61.333 61.333 135 92 221 92z
M506.001 248c-6.66699 -42.667 -23.999 -76.333 -51.999 -101c-26.667 -23.333 -59.334 -35 -98.001 -35c-53.333 0 -96.666 18.667 -129.999 56c-32.667 36 -49 81.333 -49 136c0 56 15.333 101 46 135c32 36 75.333 54 130 54c40 0 73.667 -11 101 -33
c29.333 -24 46.666 -56.333 51.999 -97h-63c-9.33301 46 -39 69 -89 69c-36 0 -63.667 -12 -83 -36c-18 -22.667 -27 -53 -27 -91c0 -38.667 10 -70 30 -94c20.667 -25.333 48 -38 82 -38c50.667 0 79.667 25 87 75h63z" />
    <glyph glyph-name="ordfeminine" unicode="&#xaa;" horiz-adv-x="314" 
d="M219 464l-35 1c-62 0 -93 -15.667 -93 -47c0 -20 17.333 -30 52 -30c50.667 0 76 17.333 76 52v24zM293 345h-73.001v33h-2c-16.667 -26.667 -45 -40 -85 -40c-28 0 -52.333 5.33301 -73 16c-26.667 14.667 -40 37 -40 67c0 33.333 18 57.666 54 72.999
c26 11.333 56.667 17 92 17h28c4.66699 0 13 -0.666992 25 -2c0 38.667 -22.667 58 -68 58c-35.333 0 -66.666 -9.33301 -93.999 -28l-2 54c32.667 16.667 66.667 25 102 25c44 0 76.333 -7 97 -21c24.667 -17.333 37 -47.333 37 -90v-111
c0 -11.333 0.333008 -22.666 1 -33.999z" />
    <glyph glyph-name="guillemotleft" unicode="&#xab;" 
d="M421 58h-76l-125 176l125 176h76l-113 -176zM245 58h-76l-125 176l125 176h76l-113 -176z" />
    <glyph glyph-name="logicalnot" unicode="&#xac;" horiz-adv-x="522" 
d="M481 90h-76v183h-364v77h440v-260z" />
    <glyph glyph-name="uni00AD" unicode="&#xad;" horiz-adv-x="290" 
d="M257 201h-224v66h224v-66z" />
    <glyph glyph-name="registered" unicode="&#xae;" horiz-adv-x="696" 
d="M351 331c24 0 41 2.66699 51 8c15.333 8 23 23 23 45c0 32 -24.333 48 -73 48h-59v-101h58zM493 127h-68l-92 153h-40v-153h-66v356h132c88 0 132 -35 132 -105c0 -58 -31 -89.667 -93 -95zM348 50c66 0 122 24 168 72c46.667 48.667 70 109.334 70 182.001
c0 72 -23.333 132.333 -70 181c-46 48 -102 72 -168 72s-122 -24 -168 -72c-46.667 -48.667 -70 -109 -70 -181c0 -72.667 23.333 -133.334 70 -182.001c46 -48 102 -72 168 -72zM348 618c86 0 160.001 -30.667 222.001 -92c61.333 -62 92 -136 92 -222
c0 -87.333 -30.667 -161.666 -92 -222.999c-61.333 -60.667 -135.333 -91 -222 -91s-160.334 30.333 -221.001 91c-62 61.333 -93 135.666 -93 222.999c0 86 31 160 93 222c61.333 61.333 135 92 221 92z" />
    <glyph glyph-name="macron" unicode="&#xaf;" horiz-adv-x="242" 
d="M250 535h-258v51h258v-51z" />
    <glyph glyph-name="degree" unicode="&#xb0;" horiz-adv-x="348" 
d="M174 618c34.667 0 64 -12.333 88 -37c24.667 -24 37 -53.333 37 -88s-12.333 -64 -37 -88c-24 -24 -53.333 -36 -88 -36s-64 12 -88 36s-36 53.333 -36 88s12 64 36 88c24 24.667 53.333 37 88 37zM105 493c0 -18.667 6.66699 -35 20 -49c14 -13.333 30.333 -20 49 -20
c19.333 0 35.666 6.66699 48.999 20c13.333 14 20 30.333 20 49c0 19.333 -6.66699 35.666 -20 48.999s-29.666 20 -48.999 20c-18.667 0 -35 -6.66699 -49 -20c-13.333 -13.333 -20 -29.666 -20 -48.999z" />
    <glyph glyph-name="plusminus" unicode="&#xb1;" horiz-adv-x="522" 
d="M481 0h-440v77h440v-77zM481 236h-182v-128h-76v128h-182v76h182v128h76v-128h182v-76z" />
    <glyph glyph-name="twosuperior" unicode="&#xb2;" horiz-adv-x="314" 
d="M287 245l-259.999 -0.00195312v66c118 92.667 177 158.667 177 198c0 16 -8 28.333 -24 37c-12.667 7.33301 -27.667 11 -45 11c-32.667 0 -63 -8.33301 -91 -25l-5 64c33.333 14.667 69.666 22 108.999 22c37.333 0 68 -8 92 -24c27.333 -19.333 41 -46.666 41 -81.999
c0 -31.333 -22.667 -71.666 -68 -120.999c-39.333 -42 -72.333 -69.667 -99 -83v-2h173v-61z" />
    <glyph glyph-name="threesuperior" unicode="&#xb3;" horiz-adv-x="314" 
d="M197 435c60 -8 90 -38.333 90 -91c0 -69.333 -53.667 -104 -161 -104c-32 0 -64.667 4.66699 -98 14l9 66c12.667 -12.667 39.667 -19 81 -19c62 0 93 15.333 93 46c0 18 -10 32.667 -30 44c-16.667 9.33301 -35.667 14 -57 14h-43v61h40c19.333 0 37.666 4 54.999 12
c20.667 9.33301 31 22 31 38c0 27.333 -25.667 41 -77 41c-21.333 0 -49.666 -6.33301 -84.999 -19l-3 62c36 12 71.667 18 107 18c37.333 0 68.333 -7.66699 93 -23c28 -18 42 -43.333 42 -76c0 -22 -9.33301 -40.667 -28 -56c-16 -14 -35.667 -22.667 -59 -26v-2z" />
    <glyph glyph-name="acute" unicode="&#xb4;" horiz-adv-x="242" 
d="M122 505h-58l77 126h95z" />
    <glyph glyph-name="mu" unicode="&#xb5;" horiz-adv-x="532" 
d="M462 0h-79.002v70h-2c-25.333 -53.333 -73.666 -80 -144.999 -80c-36 0 -64.333 5.66699 -85 17v-190h-81v627h81v-230c0 -54 6.66699 -92.667 20 -116c14.667 -26 39.334 -40 74.001 -42c90 0 135 60.667 135 182v206h82v-444z" />
    <glyph glyph-name="paragraph" unicode="&#xb6;" horiz-adv-x="522" 
d="M458 -97h-75.999v643h-100v-643h-77v387c-56.667 0 -102.334 14.333 -137.001 43c-34 28.667 -51 66 -51 112c0 108 68.667 162 206 162h235v-704z" />
    <glyph glyph-name="periodcentered" unicode="&#xb7;" horiz-adv-x="242" 
d="M158 228c-10 -10.667 -22 -16 -36 -16s-26 5.33301 -36 16c-10.667 10.667 -16 22.667 -16 36c0 14 5.33301 26 16 36c10 10 22 15 36 15s26 -5 36 -15c9.33301 -10 14 -22 14 -36s-4.66699 -26 -14 -36z" />
    <glyph glyph-name="cedilla" unicode="&#xb8;" horiz-adv-x="242" 
d="M104 -145c20.667 -8.66699 39.332 -12.999 55.999 -12.999c32.667 0 49 13.333 49 40c0 22.667 -13.333 34 -40 34c-10 0 -22 -2.33301 -36 -7l-15 16l56 75h41l-40 -52l2 -2c6 2.66699 14.667 4 26 4c20 0 37 -5.33301 51 -16c14 -12 21 -27.667 21 -47
c0 -26.667 -12.333 -47.334 -37 -62.001c-21.333 -12 -47 -18 -77 -18c-27.333 0 -51.666 6 -72.999 18z" />
    <glyph glyph-name="onesuperior" unicode="&#xb9;" horiz-adv-x="314" 
d="M211 245h-77v301l-61 -47l-29 40l96 73h71v-367z" />
    <glyph glyph-name="ordmasculine" unicode="&#xba;" horiz-adv-x="345" 
d="M172 388c52.667 0 79 30 79 90c0 59.333 -26.333 89 -79 89c-52 0 -78 -29.667 -78 -89c0 -60 26 -90 78 -90zM322 478c0 -39.333 -13.667 -72.333 -41 -99c-28.667 -27.333 -65 -41 -109 -41s-80 13.667 -108 41c-27.333 26.667 -41 59.667 -41 99
c0 40.667 13.333 74 40 100c28 26.667 64.333 40 109 40c45.333 0 82 -13.333 110 -40c26.667 -26 40 -59.333 40 -100z" />
    <glyph glyph-name="guillemotright" unicode="&#xbb;" 
d="M139 58h-76l113 176l-113 176h76l125 -176zM315 58h-77l113 176l-113 176h77l124 -176z" />
    <glyph glyph-name="onequarter" unicode="&#xbc;" horiz-adv-x="726" 
d="M652 0h-77v72h-184v53l160 242h101v-234h45v-61h-45v-72zM575 133v173h-2l-111 -173h113zM196 245h-77v301l-61 -47l-29 40l96 73h71v-367zM187 -19h-63l377 645h63z" />
    <glyph glyph-name="onehalf" unicode="&#xbd;" horiz-adv-x="726" 
d="M697 0l-260 0.00195312v66l42 35c24 19.333 44 36.333 60 51c50 47.333 75 84.666 75 111.999c0 16 -8 28.333 -24 37c-13.333 6.66699 -28.333 10 -45 10c-32.667 0 -63 -8.33301 -91 -25l-5 65c34 14 70.333 21 109 21c37.333 0 68 -8 92 -24c27.333 -18 41 -45 41 -81
c0 -30.667 -22.667 -71 -68 -121c-40 -42.667 -73 -70.334 -99 -83.001v-2h173v-61zM196 245.002h-77v301l-61 -47l-29 40l96 73h71v-367zM160 -18.998h-63l377 645h63z" />
    <glyph glyph-name="threequarters" unicode="&#xbe;" horiz-adv-x="726" 
d="M652 0h-77v72h-184v53l160 242h101v-234h45v-61h-45v-72zM575 133v173h-2l-111 -173h113zM197 435c60 -8 90 -38.333 90 -91c0 -69.333 -53.667 -104 -161 -104c-32 0 -64.667 4.66699 -98 14l9 66c12.667 -12.667 39.667 -19 81 -19c62 0 93 15.333 93 46
c0 18 -10 32.667 -30 44c-16.667 9.33301 -35.667 14 -57 14h-43v61h40c19.333 0 37.666 4 54.999 12c20.667 9.33301 31 22 31 38c0 27.333 -25.667 41 -77 41c-21.333 0 -49.666 -6.33301 -84.999 -19l-3 62c36 12 71.667 18 107 18c37.333 0 68.333 -7.66699 93 -23
c28 -18 42 -43.333 42 -76c0 -22 -9.33301 -40.667 -28 -56c-16 -14 -35.667 -22.667 -59 -26v-2zM224 -19h-62l377 645h62z" />
    <glyph glyph-name="questiondown" unicode="&#xbf;" horiz-adv-x="435" 
d="M265 346h-97v98h97v-98zM371 -145c-47.333 -19.333 -95.667 -28.999 -145 -28.999c-50.667 0 -93.667 13.333 -129 40c-39.333 29.333 -59 68.666 -59 117.999c0 42 23 90 69 144s69 97.333 69 130v15h82v-18c0 -41.333 -21 -87.333 -63 -138
c-42.667 -50.667 -64 -93 -64 -127c0 -28.667 10.667 -50.667 32 -66c18.667 -14 43 -21 73 -21c53.333 0 96.333 11.333 129 34z" />
    <glyph glyph-name="Agrave" unicode="&#xc0;" horiz-adv-x="628" 
d="M433 224l-121 301l-121 -301h242zM618 0h-95l-62 153h-297l-62 -153h-92l260 607h91zM371 651h-58l-114 126h95z" />
    <glyph glyph-name="Aacute" unicode="&#xc1;" horiz-adv-x="628" 
d="M433 224l-121 301l-121 -301h242zM618 0h-95l-62 153h-297l-62 -153h-92l260 607h91zM315 651h-58l77 126h95z" />
    <glyph glyph-name="Acircumflex" unicode="&#xc2;" horiz-adv-x="628" 
d="M433 224l-121 301l-121 -301h242zM618 0h-95l-62 153h-297l-62 -153h-92l260 607h91zM440 651h-70l-57 86l-56 -86h-69l86 126h79z" />
    <glyph glyph-name="Atilde" unicode="&#xc3;" horiz-adv-x="628" 
d="M462 753c-8.66699 -64.667 -35.998 -97 -81.998 -97c-16.667 0 -41.334 6.66699 -74.001 20c-32 13.333 -53.667 20 -65 20c-19.333 0 -31 -13.333 -35 -40h-40c8.66699 64.667 36 97 82 97c16 0 39.333 -6.66699 70 -20c31.333 -13.333 52.666 -20 63.999 -20
c22.667 0 36 13.333 40 40h40zM433.002 224l-121 301l-121 -301h242zM618.002 0h-95l-62 153h-297l-62 -153h-92l260 607h91z" />
    <glyph glyph-name="Adieresis" unicode="&#xc4;" horiz-adv-x="628" 
d="M433 224l-121 301l-121 -301h242zM618 0h-95l-62 153h-297l-62 -153h-92l260 607h91zM426 658h-82v87h82v-87zM283 658h-81v87h81v-87z" />
    <glyph glyph-name="Aring" unicode="&#xc5;" horiz-adv-x="628" 
d="M433 224l-121 301l-121 -301h242zM618 0h-95l-62 153h-297l-62 -153h-92l260 607h91zM314 671c14 0 26.668 5.66797 38.001 17.001c10.667 10.667 16 23 16 37s-5.33301 26.333 -16 37s-23.334 16 -38.001 16s-27.334 -5.33301 -38.001 -16s-16 -23 -16 -37
c0 -14.667 5.33301 -27.334 16 -38.001s23.334 -16 38.001 -16zM403.001 725.001c0 -24.667 -8.66699 -45.667 -26 -63c-18 -17.333 -39 -26 -63 -26c-24.667 0 -45.667 8.66699 -63 26s-26 38.333 -26 63c0 24 8.66699 44.667 26 62s38.333 26 63 26
c24 0 45 -8.66699 63 -26c17.333 -17.333 26 -38 26 -62z" />
    <glyph glyph-name="AE" unicode="&#xc6;" horiz-adv-x="821" 
d="M444 224l-19 322h-2l-192 -322h213zM760 0h-302l-10 153h-258l-92 -153h-96l367 607h382v-76h-241l11 -178h214v-76h-210l13 -200h222v-77z" />
    <glyph glyph-name="Ccedilla" unicode="&#xc7;" horiz-adv-x="532" 
d="M505 11c-39.333 -15.333 -82.335 -22.998 -129.002 -22.998c-12 0 -22 1 -30 3l-33 -43l3 -3c8 3.33301 16.333 5 25 5c20.667 0 37.667 -5.33301 51 -16c14 -12 21 -27.667 21 -47c0 -26.667 -12.333 -47.334 -37 -62.001c-21.333 -12 -47 -18 -77 -18
c-25.333 0 -49.666 6 -72.999 18l16 30c22 -8.66699 40.667 -13 56 -13c32.667 0 49 13.333 49 40c0 22.667 -13.333 34 -40 34c-10 0 -22 -2.33301 -36 -7l-14 16l50 69c-80 12 -143.333 45.667 -190 101c-47.333 56 -71 126.333 -71 211c0 93.333 30.333 169 91 227
c60 56.667 136.667 85 230 85c51.333 0 97 -8.66699 137 -26l-7 -85c-38.667 22.667 -80.667 34 -126 34c-69.333 0 -125.666 -22.333 -168.999 -67c-42.667 -44.667 -64 -101.334 -64 -170.001c0 -70 22.667 -127.667 68 -173c43.333 -43.333 97 -65 161 -65
c56.667 0 100.667 10 132 30z" />
    <glyph glyph-name="Egrave" unicode="&#xc8;" 
d="M422 0h-340v607h340v-76h-253v-178h230v-76h-230v-200h253v-77zM299 651h-58l-114 126h95z" />
    <glyph glyph-name="Eacute" unicode="&#xc9;" 
d="M422 0h-340v607h340v-76h-253v-178h230v-76h-230v-200h253v-77zM243 651h-58l77 126h95z" />
    <glyph glyph-name="Ecircumflex" unicode="&#xca;" 
d="M422 0h-340v607h340v-76h-253v-178h230v-76h-230v-200h253v-77zM368 651h-70l-57 86l-56 -86h-69l86 126h79z" />
    <glyph glyph-name="Edieresis" unicode="&#xcb;" 
d="M354 658h-82v87h82v-87zM211 658h-81v87h81v-87zM422 0h-340v607h340v-76h-253v-178h230v-76h-230v-200h253v-77z" />
    <glyph glyph-name="Igrave" unicode="&#xcc;" horiz-adv-x="242" 
d="M164 0h-87v607h87v-607zM178 651h-58l-114 126h95z" />
    <glyph glyph-name="Iacute" unicode="&#xcd;" horiz-adv-x="242" 
d="M122 651h-58l77 126h95zM164 0h-87v607h87v-607z" />
    <glyph glyph-name="Icircumflex" unicode="&#xce;" horiz-adv-x="242" 
d="M164 0h-87v607h87v-607zM247 651h-70l-57 86l-56 -86h-69l86 126h79z" />
    <glyph glyph-name="Idieresis" unicode="&#xcf;" horiz-adv-x="242" 
d="M233 658h-82v87h82v-87zM90 658h-81v87h81v-87zM164 0h-87v607h87v-607z" />
    <glyph glyph-name="Eth" unicode="&#xd0;" horiz-adv-x="628" 
d="M72 0v298h-59v55h59v254h179c93.333 0 170 -26.333 230 -79c62.667 -54.667 94 -127.667 94 -219c0 -100.667 -29 -177.667 -87 -231c-56 -52 -135 -78 -237 -78h-179zM251 77c154.667 0 232 76 232 228c0 66 -20.333 120 -61 162c-42 42.667 -96.333 64 -163 64h-100
v-178h159v-55h-159v-221h92z" />
    <glyph glyph-name="Ntilde" unicode="&#xd1;" horiz-adv-x="628" 
d="M552 0h-112l-275 499h-1v-499h-87v607h118l268 -489h2v489h87v-607zM462 753c-8.66699 -64.667 -35.998 -97 -81.998 -97c-16.667 0 -41.334 6.66699 -74.001 20c-32 13.333 -53.667 20 -65 20c-19.333 0 -31 -13.333 -35 -40h-40c8.66699 64.667 36 97 82 97
c16 0 39.333 -6.66699 70 -20c31.333 -13.333 52.666 -20 63.999 -20c22.667 0 36 13.333 40 40h40z" />
    <glyph glyph-name="Ograve" unicode="&#xd2;" horiz-adv-x="677" 
d="M555 77c-52.667 -58 -125 -87 -217 -87c-91.333 0 -163 29 -215 87c-51.333 56.667 -77 132.334 -77 227.001c0 92 25.667 166.667 77 224c53.333 60 125 90 215 90c90.667 0 162.667 -30 216 -90c51.333 -57.333 77 -132 77 -224
c0 -94.667 -25.333 -170.334 -76 -227.001zM338 66c65.333 0 116.333 24.333 153 73c32 43.333 48 98.333 48 165c0 66 -16.667 121 -50 165c-36.667 48 -87 72 -151 72c-63.333 0 -113.333 -24 -150 -72c-33.333 -44 -50 -99 -50 -165c0 -66.667 16 -121.667 48 -165
c36 -48.667 86.667 -73 152 -73zM396 651h-58l-114 126h95z" />
    <glyph glyph-name="Oacute" unicode="&#xd3;" horiz-adv-x="677" 
d="M340 651h-58l77 126h95zM555 77c-52.667 -58 -125 -87 -217 -87c-91.333 0 -163 29 -215 87c-51.333 56.667 -77 132.334 -77 227.001c0 92 25.667 166.667 77 224c53.333 60 125 90 215 90c90.667 0 162.667 -30 216 -90c51.333 -57.333 77 -132 77 -224
c0 -94.667 -25.333 -170.334 -76 -227.001zM338 66c65.333 0 116.333 24.333 153 73c32 43.333 48 98.333 48 165c0 66 -16.667 121 -50 165c-36.667 48 -87 72 -151 72c-63.333 0 -113.333 -24 -150 -72c-33.333 -44 -50 -99 -50 -165c0 -66.667 16 -121.667 48 -165
c36 -48.667 86.667 -73 152 -73z" />
    <glyph glyph-name="Ocircumflex" unicode="&#xd4;" horiz-adv-x="677" 
d="M555 77c-52.667 -58 -125 -87 -217 -87c-91.333 0 -163 29 -215 87c-51.333 56.667 -77 132.334 -77 227.001c0 92 25.667 166.667 77 224c53.333 60 125 90 215 90c90.667 0 162.667 -30 216 -90c51.333 -57.333 77 -132 77 -224
c0 -94.667 -25.333 -170.334 -76 -227.001zM338 66c65.333 0 116.333 24.333 153 73c32 43.333 48 98.333 48 165c0 66 -16.667 121 -50 165c-36.667 48 -87 72 -151 72c-63.333 0 -113.333 -24 -150 -72c-33.333 -44 -50 -99 -50 -165c0 -66.667 16 -121.667 48 -165
c36 -48.667 86.667 -73 152 -73zM465 651h-70l-57 86l-56 -86h-69l86 126h79z" />
    <glyph glyph-name="Otilde" unicode="&#xd5;" horiz-adv-x="677" 
d="M555 77c-52.667 -58 -125 -87 -217 -87c-91.333 0 -163 29 -215 87c-51.333 56.667 -77 132.334 -77 227.001c0 92 25.667 166.667 77 224c53.333 60 125 90 215 90c90.667 0 162.667 -30 216 -90c51.333 -57.333 77 -132 77 -224
c0 -94.667 -25.333 -170.334 -76 -227.001zM338 66c65.333 0 116.333 24.333 153 73c32 43.333 48 98.333 48 165c0 66 -16.667 121 -50 165c-36.667 48 -87 72 -151 72c-63.333 0 -113.333 -24 -150 -72c-33.333 -44 -50 -99 -50 -165c0 -66.667 16 -121.667 48 -165
c36 -48.667 86.667 -73 152 -73zM487 753c-8.66699 -64.667 -35.998 -97 -81.998 -97c-16.667 0 -41.334 6.66699 -74.001 20c-32 13.333 -53.667 20 -65 20c-19.333 0 -31 -13.333 -35 -40h-40c8.66699 64.667 36 97 82 97c16 0 39.333 -6.66699 70 -20
c31.333 -13.333 52.666 -20 63.999 -20c22.667 0 36 13.333 40 40h40z" />
    <glyph glyph-name="Odieresis" unicode="&#xd6;" horiz-adv-x="677" 
d="M451 658h-82v87h82v-87zM308 658h-81v87h81v-87zM555 77c-52.667 -58 -125 -87 -217 -87c-91.333 0 -163 29 -215 87c-51.333 56.667 -77 132.334 -77 227.001c0 92 25.667 166.667 77 224c53.333 60 125 90 215 90c90.667 0 162.667 -30 216 -90
c51.333 -57.333 77 -132 77 -224c0 -94.667 -25.333 -170.334 -76 -227.001zM338 66c65.333 0 116.333 24.333 153 73c32 43.333 48 98.333 48 165c0 66 -16.667 121 -50 165c-36.667 48 -87 72 -151 72c-63.333 0 -113.333 -24 -150 -72c-33.333 -44 -50 -99 -50 -165
c0 -66.667 16 -121.667 48 -165c36 -48.667 86.667 -73 152 -73z" />
    <glyph glyph-name="multiply" unicode="&#xd7;" horiz-adv-x="522" 
d="M463 72l-54 -54l-148 149l-148 -149l-54 54l148 148l-148 148l54 54l148 -149l148 149l54 -54l-149 -148z" />
    <glyph glyph-name="Oslash" unicode="&#xd8;" horiz-adv-x="677" 
d="M214 110c34 -29.333 75.333 -44 124 -44c65.333 0 116.333 24.333 153 73c32 43.333 48 98.333 48 165c0 64 -16.333 118.333 -49 163zM115 -18l-33 22.001l49 65c-56.667 56.667 -85 135 -85 235c0 92 25.667 166.667 77 224c53.333 60 125 90 215 90
c66 0 124.667 -18 176 -54l46 60l32 -25l-47 -61c57.333 -60.667 86 -138.667 86 -234c0 -94.667 -25.333 -170.334 -76 -227.001c-52.667 -58 -125 -87 -217 -87c-70 0 -128.667 17.667 -176 53zM463 498.001c-34 28.667 -74.333 42.999 -121 42.999
c-64.667 0 -115.667 -23.667 -153 -71c-34 -43.333 -51 -98.666 -51 -165.999s16 -122.333 48 -165z" />
    <glyph glyph-name="Ugrave" unicode="&#xd9;" horiz-adv-x="628" 
d="M550 251c0 -85.333 -20.333 -150.333 -61 -195c-40.667 -44 -99 -66 -175 -66s-134.333 22 -175 66c-40.667 44.667 -61 109.667 -61 195v356h87v-344c0 -131.333 49.667 -197 149 -197s149 65.667 149 197v344h87v-356zM371 651h-58l-114 126h95z" />
    <glyph glyph-name="Uacute" unicode="&#xda;" horiz-adv-x="628" 
d="M315 651h-58l77 126h95zM550 251c0 -85.333 -20.333 -150.333 -61 -195c-40.667 -44 -99 -66 -175 -66s-134.333 22 -175 66c-40.667 44.667 -61 109.667 -61 195v356h87v-344c0 -131.333 49.667 -197 149 -197s149 65.667 149 197v344h87v-356z" />
    <glyph glyph-name="Ucircumflex" unicode="&#xdb;" horiz-adv-x="628" 
d="M550 251c0 -85.333 -20.333 -150.333 -61 -195c-40.667 -44 -99 -66 -175 -66s-134.333 22 -175 66c-40.667 44.667 -61 109.667 -61 195v356h87v-344c0 -131.333 49.667 -197 149 -197s149 65.667 149 197v344h87v-356zM440 651h-70l-57 86l-56 -86h-69l86 126h79z" />
    <glyph glyph-name="Udieresis" unicode="&#xdc;" horiz-adv-x="628" 
d="M426 658h-82v87h82v-87zM283 658h-81v87h81v-87zM550 251c0 -85.333 -20.333 -150.333 -61 -195c-40.667 -44 -99 -66 -175 -66s-134.333 22 -175 66c-40.667 44.667 -61 109.667 -61 195v356h87v-344c0 -131.333 49.667 -197 149 -197s149 65.667 149 197v344h87v-356z
" />
    <glyph glyph-name="Yacute" unicode="&#xdd;" horiz-adv-x="580" 
d="M334 0h-87v254l-237 353h101l181 -272l177 272h102l-237 -353v-254zM292 651h-58l77 126h95z" />
    <glyph glyph-name="Thorn" unicode="&#xde;" 
d="M245 231c32.667 0 60 7.66699 82 23c26.667 18.667 40 46.667 40 84c0 34.667 -15.667 61.667 -47 81c-25.333 15.333 -54.333 23 -87 23h-74v-211h86zM159 0h-87v607h87v-88h72c152 0 228 -60.667 228 -182c0 -62.667 -22 -110 -66 -142
c-38 -27.333 -87.667 -41 -149 -41h-85v-154z" />
    <glyph glyph-name="germandbls" unicode="&#xdf;" horiz-adv-x="532" 
d="M151 0l-81.0029 -0.00195312v412c0 82.667 16 144.334 48 185.001c34 44 89 66 165 66c46 0 86 -14 120 -42c37.333 -32 56 -75 56 -129c0 -72.667 -33.667 -119.667 -101 -141v-2c40 -5.33301 72 -24 96 -56c22 -29.333 33 -64 33 -104c0 -56 -16.667 -101.667 -50 -137
c-35.333 -38 -82.666 -57 -141.999 -57c-30 0 -58 4 -84 12v69c22 -10 44.667 -15 68 -15c34.667 0 63.334 10.667 86.001 32c23.333 22.667 35 53.334 35 92.001c0 84 -54.333 126 -163 126v66c44.667 0 77.334 7.66699 98.001 23c24.667 18 37 48 37 90
c0 29.333 -8.33301 54 -25 74c-18.667 22 -42.667 33 -72 33c-44 0 -76.667 -18.667 -98 -56c-17.333 -30 -26 -68.667 -26 -116v-425z" />
    <glyph glyph-name="agrave" unicode="&#xe0;" 
d="M333 211l-52 2c-102.667 0 -154 -28.333 -154 -85c0 -22 9 -40 27 -54c16 -12 34.667 -18 56 -18c39.333 0 70 11.333 92 34c20.667 20.667 31 48 31 82v39zM342 0v57h-2c-30 -44.667 -75.667 -67 -137 -67c-108.667 0 -163 46 -163 138c0 50 24 88 72 114
c38 21.333 82.667 32 134 32h44c7.33301 0 21.666 -0.666992 42.999 -2c0 40 -8 69 -24 87c-17.333 19.333 -45.666 29 -84.999 29c-50.667 0 -93.667 -15 -129 -45l-5 69c46 28 95 42 147 42c118.667 0 178 -61 178 -183v-184c0 -32 1 -61 3 -87h-76zM299 505h-58l-114 126
h95z" />
    <glyph glyph-name="aacute" unicode="&#xe1;" 
d="M243 505h-58l77 126h95zM333 211l-52 2c-102.667 0 -154 -28.333 -154 -85c0 -22 9 -40 27 -54c16 -12 34.667 -18 56 -18c39.333 0 70 11.333 92 34c20.667 20.667 31 48 31 82v39zM342 0v57h-2c-30 -44.667 -75.667 -67 -137 -67c-108.667 0 -163 46 -163 138
c0 50 24 88 72 114c38 21.333 82.667 32 134 32h44c7.33301 0 21.666 -0.666992 42.999 -2c0 40 -8 69 -24 87c-17.333 19.333 -45.666 29 -84.999 29c-50.667 0 -93.667 -15 -129 -45l-5 69c46 28 95 42 147 42c118.667 0 178 -61 178 -183v-184c0 -32 1 -61 3 -87h-76z
" />
    <glyph glyph-name="acircumflex" unicode="&#xe2;" 
d="M333 211l-52 2c-102.667 0 -154 -28.333 -154 -85c0 -22 9 -40 27 -54c16 -12 34.667 -18 56 -18c39.333 0 70 11.333 92 34c20.667 20.667 31 48 31 82v39zM342 0v57h-2c-30 -44.667 -75.667 -67 -137 -67c-108.667 0 -163 46 -163 138c0 50 24 88 72 114
c38 21.333 82.667 32 134 32h44c7.33301 0 21.666 -0.666992 42.999 -2c0 40 -8 69 -24 87c-17.333 19.333 -45.666 29 -84.999 29c-50.667 0 -93.667 -15 -129 -45l-5 69c46 28 95 42 147 42c118.667 0 178 -61 178 -183v-184c0 -32 1 -61 3 -87h-76zM368 505h-70l-57 86
l-56 -86h-69l86 126h79z" />
    <glyph glyph-name="atilde" unicode="&#xe3;" 
d="M390 607c-8.66699 -64.667 -35.998 -97 -81.998 -97c-16.667 0 -41.334 6.66699 -74.001 20c-32 13.333 -53.667 20 -65 20c-19.333 0 -31 -13.333 -35 -40h-40c8.66699 64.667 36 97 82 97c16 0 39.333 -6.66699 70 -20c31.333 -13.333 52.666 -20 63.999 -20
c22.667 0 36 13.333 40 40h40zM333.002 211l-52 2c-102.667 0 -154 -28.333 -154 -85c0 -22 9 -40 27 -54c16 -12 34.667 -18 56 -18c39.333 0 70 11.333 92 34c20.667 20.667 31 48 31 82v39zM342.002 0v57h-2c-30 -44.667 -75.667 -67 -137 -67
c-108.667 0 -163 46 -163 138c0 50 24 88 72 114c38 21.333 82.667 32 134 32h44c7.33301 0 21.666 -0.666992 42.999 -2c0 40 -8 69 -24 87c-17.333 19.333 -45.666 29 -84.999 29c-50.667 0 -93.667 -15 -129 -45l-5 69c46 28 95 42 147 42c118.667 0 178 -61 178 -183
v-184c0 -32 1 -61 3 -87h-76z" />
    <glyph glyph-name="adieresis" unicode="&#xe4;" 
d="M333 211l-52 2c-102.667 0 -154 -28.333 -154 -85c0 -22 9 -40 27 -54c16 -12 34.667 -18 56 -18c39.333 0 70 11.333 92 34c20.667 20.667 31 48 31 82v39zM342 0v57h-2c-30 -44.667 -75.667 -67 -137 -67c-108.667 0 -163 46 -163 138c0 50 24 88 72 114
c38 21.333 82.667 32 134 32h44c7.33301 0 21.666 -0.666992 42.999 -2c0 40 -8 69 -24 87c-17.333 19.333 -45.666 29 -84.999 29c-50.667 0 -93.667 -15 -129 -45l-5 69c46 28 95 42 147 42c118.667 0 178 -61 178 -183v-184c0 -32 1 -61 3 -87h-76zM354 512h-82v87h82
v-87zM211 512h-81v87h81v-87z" />
    <glyph glyph-name="aring" unicode="&#xe5;" 
d="M242 525c14 0 26.668 5.66797 38.001 17.001c10.667 10.667 16 23 16 37s-5.33301 26.333 -16 37s-23.334 16 -38.001 16s-27.334 -5.33301 -38.001 -16s-16 -23 -16 -37c0 -14.667 5.33301 -27.334 16 -38.001s23.334 -16 38.001 -16zM331.001 579.001
c0 -24.667 -8.66699 -45.667 -26 -63c-18 -17.333 -39 -26 -63 -26c-24.667 0 -45.667 8.66699 -63 26s-26 38.333 -26 63c0 24 8.66699 44.667 26 62s38.333 26 63 26c24 0 45 -8.66699 63 -26c17.333 -17.333 26 -38 26 -62zM333.001 211.001l-52 2
c-102.667 0 -154 -28.333 -154 -85c0 -22 9 -40 27 -54c16 -12 34.667 -18 56 -18c39.333 0 70 11.333 92 34c20.667 20.667 31 48 31 82v39zM342.001 0.000976562v57h-2c-30 -44.667 -75.667 -67 -137 -67c-108.667 0 -163 46 -163 138c0 50 24 88 72 114
c38 21.333 82.667 32 134 32h44c7.33301 0 21.666 -0.666992 42.999 -2c0 40 -8 69 -24 87c-17.333 19.333 -45.666 29 -84.999 29c-50.667 0 -93.667 -15 -129 -45l-5 69c46 28 95 42 147 42c118.667 0 178 -61 178 -183v-184c0 -32 1 -61 3 -87h-76z" />
    <glyph glyph-name="ae" unicode="&#xe6;" horiz-adv-x="773" 
d="M651 264c0 31.333 -9.66699 59.333 -29 84c-21.333 26.667 -48 40 -80 40c-35.333 0 -64 -12 -86 -36c-21.333 -22.667 -32 -52 -32 -88h227zM313 212c-17.333 0.666992 -33.667 0.999023 -49 0.999023c-94 0 -141 -28 -141 -84c0 -23.333 9 -41.666 27 -54.999
c15.333 -12 35.333 -18 60 -18c38 0 69.667 15.333 95 46c24.667 30 37 66.333 37 109zM691.999 18.999c-44.667 -19.333 -87.001 -28.999 -127.001 -28.999c-102 0 -166 34.333 -192 103h-2c-7.33301 -32.667 -28 -58.667 -62 -78c-30 -16.667 -64 -25 -102 -25
c-44.667 0 -83.667 12 -117 36c-36 26.667 -54 61.667 -54 105c0 54 26 93.333 78 118c36.667 16.667 82 25 136 25c18 0 37 -0.666992 57 -2l35 -2c0 78.667 -41.667 118 -125 118c-41.333 0 -82.666 -15 -123.999 -45l-4 69c43.333 28 92.333 42 147 42
c74.667 0 125.667 -25.667 153 -77c28.667 51.333 80 77 154 77c69.333 0 120.333 -25.667 153 -77c28 -42.667 42 -100.334 42 -173.001h-314c0 -42 13.667 -77 41 -105c27.333 -28.667 62 -43 104 -43c42.667 0 83.667 15.333 123 46v-83z" />
    <glyph glyph-name="ccedilla" unicode="&#xe7;" horiz-adv-x="386" 
d="M362 8c-24.667 -12 -60.002 -17.998 -106.002 -17.998l-32 -42l1 -2c7.33301 2.66699 16 4 26 4c20.667 0 38 -5.33301 52 -16c14 -12 21 -27.667 21 -47c0 -26.667 -12.333 -47.334 -37 -62.001c-21.333 -12 -47 -18 -77 -18c-27.333 0 -51.666 6 -72.999 18l15 30
c22 -8.66699 41 -13 57 -13c32.667 0 49 13.333 49 40c0 22.667 -13.333 34 -40 34c-10 0 -22 -2.33301 -36 -7l-15 16l51 69c-54.667 9.33301 -99.334 35.333 -134.001 78c-34 42.667 -51 92.667 -51 150c0 68 20.667 123.667 62 167c42 43.333 96.667 65 164 65
c37.333 0 70.333 -5.66699 99 -17l-7 -68c-32.667 12.667 -62 19 -88 19c-43.333 0 -78.666 -17 -105.999 -51c-24.667 -32 -37 -70.333 -37 -115s11.667 -82.334 35 -113.001c26.667 -35.333 64.334 -53 113.001 -53c32.667 0 62 8.33301 88 25z" />
    <glyph glyph-name="egrave" unicode="&#xe8;" 
d="M357 264c0 35.333 -9.66699 64.667 -29 88c-20.667 24 -48 36 -82 36c-68 0 -107.667 -41.333 -119 -124h230zM410 18.001c-56 -18.667 -102.667 -27.999 -140 -27.999c-76.667 0 -134.667 22 -174 66c-37.333 41.333 -56 99.333 -56 174c0 66 19 119.667 57 161
c38.667 42 89 63 151 63c130.667 0 196 -83.333 196 -250h-317c0 -42.667 14.667 -78.334 44 -107.001c28.667 -27.333 62.667 -41 102 -41c51.333 0 97 14.667 137 44v-82zM299 505.002h-58l-114 126h95z" />
    <glyph glyph-name="eacute" unicode="&#xe9;" 
d="M243 505h-58l77 126h95zM357 264c0 35.333 -9.66699 64.667 -29 88c-20.667 24 -48 36 -82 36c-68 0 -107.667 -41.333 -119 -124h230zM410 18.001c-56 -18.667 -102.667 -27.999 -140 -27.999c-76.667 0 -134.667 22 -174 66c-37.333 41.333 -56 99.333 -56 174
c0 66 19 119.667 57 161c38.667 42 89 63 151 63c130.667 0 196 -83.333 196 -250h-317c0 -42.667 14.667 -78.334 44 -107.001c28.667 -27.333 62.667 -41 102 -41c51.333 0 97 14.667 137 44v-82z" />
    <glyph glyph-name="ecircumflex" unicode="&#xea;" 
d="M357 264c0 35.333 -9.66699 64.667 -29 88c-20.667 24 -48 36 -82 36c-68 0 -107.667 -41.333 -119 -124h230zM410 18.001c-56 -18.667 -102.667 -27.999 -140 -27.999c-76.667 0 -134.667 22 -174 66c-37.333 41.333 -56 99.333 -56 174c0 66 19 119.667 57 161
c38.667 42 89 63 151 63c130.667 0 196 -83.333 196 -250h-317c0 -42.667 14.667 -78.334 44 -107.001c28.667 -27.333 62.667 -41 102 -41c51.333 0 97 14.667 137 44v-82zM368 505.002h-70l-57 86l-56 -86h-69l86 126h79z" />
    <glyph glyph-name="edieresis" unicode="&#xeb;" 
d="M354 512h-82v87h82v-87zM211 512h-81v87h81v-87zM357 264c0 35.333 -9.66699 64.667 -29 88c-20.667 24 -48 36 -82 36c-68 0 -107.667 -41.333 -119 -124h230zM410 18.001c-56 -18.667 -102.667 -27.999 -140 -27.999c-76.667 0 -134.667 22 -174 66
c-37.333 41.333 -56 99.333 -56 174c0 66 19 119.667 57 161c38.667 42 89 63 151 63c130.667 0 196 -83.333 196 -250h-317c0 -42.667 14.667 -78.334 44 -107.001c28.667 -27.333 62.667 -41 102 -41c51.333 0 97 14.667 137 44v-82z" />
    <glyph glyph-name="igrave" unicode="&#xec;" horiz-adv-x="242" 
d="M162 0h-82v444h82v-444zM178 505h-58l-114 126h95z" />
    <glyph glyph-name="iacute" unicode="&#xed;" horiz-adv-x="242" 
d="M122 505h-58l77 126h95zM162 0h-82v444h82v-444z" />
    <glyph glyph-name="icircumflex" unicode="&#xee;" horiz-adv-x="242" 
d="M162 0h-82v444h82v-444zM247 505h-70l-57 86l-56 -86h-69l86 126h79z" />
    <glyph glyph-name="idieresis" unicode="&#xef;" horiz-adv-x="242" 
d="M233 512h-82v87h82v-87zM90 512h-81v87h81v-87zM162 0h-82v444h82v-444z" />
    <glyph glyph-name="eth" unicode="&#xf0;" horiz-adv-x="532" 
d="M341 435c-26 36 -57.668 67.333 -95.001 94l-112 -60l-40 46l96 51c-26 16.667 -62.333 33.667 -109 51l63 46c46 -17.333 85.667 -36.333 119 -57l106 57l40 -46l-91 -49c116 -88.667 174 -204 174 -346c0 -65.333 -21 -120 -63 -164
c-43.333 -45.333 -97.666 -68 -162.999 -68s-119.666 22.667 -162.999 68c-42 44 -63 98.667 -63 164c0 68 20.667 123.667 62 167c42 43.333 96.667 65 164 65c29.333 0 53.666 -6.33301 72.999 -19h2zM265.999 56c44.667 0 79.667 17.668 105 53.001
c22.667 31.333 34 69 34 113c0 44.667 -12.333 83 -37 115c-26.667 34 -60.667 51 -102 51s-75.333 -17 -102 -51c-24.667 -32 -37 -70.333 -37 -115s11.333 -82.334 34 -113.001c25.333 -35.333 60.333 -53 105 -53z" />
    <glyph glyph-name="ntilde" unicode="&#xf1;" horiz-adv-x="532" 
d="M462 0h-81.999v230c0 54 -6.66699 93 -20 117c-14.667 25.333 -39.334 39 -74.001 41c-90 0 -135 -61 -135 -183v-205h-81v444h79v-71h2c24.667 54 73 81 145 81c110.667 0 166 -63.333 166 -190v-264zM414.001 607c-8.66699 -64.667 -35.998 -97 -81.998 -97
c-16.667 0 -41.334 6.66699 -74.001 20c-32 13.333 -53.667 20 -65 20c-19.333 0 -31 -13.333 -35 -40h-40c8.66699 64.667 36 97 82 97c16 0 39.333 -6.66699 70 -20c31.333 -13.333 52.666 -20 63.999 -20c22.667 0 36 13.333 40 40h40z" />
    <glyph glyph-name="ograve" unicode="&#xf2;" horiz-adv-x="532" 
d="M266 56c44.667 0 79.667 17.668 105 53.001c22.667 31.333 34 69 34 113c0 44.667 -12.333 83 -37 115c-26.667 34 -60.667 51 -102 51s-75.333 -17 -102 -51c-24.667 -32 -37 -70.333 -37 -115s11.333 -82.334 34 -113.001c25.333 -35.333 60.333 -53 105 -53z
M429 58.001c-43.333 -45.333 -97.668 -68 -163.001 -68s-119.666 22.667 -162.999 68c-42 44 -63 98.667 -63 164c0 68 20.667 123.667 62 167c42 43.333 96.667 65 164 65s122 -21.667 164 -65c41.333 -43.333 62 -99 62 -167c0 -65.333 -21 -120 -63 -164z
M322.998 505.001h-58l-114 126h95z" />
    <glyph glyph-name="oacute" unicode="&#xf3;" horiz-adv-x="532" 
d="M267 505h-58l77 126h95zM266 56c44.667 0 79.667 17.668 105 53.001c22.667 31.333 34 69 34 113c0 44.667 -12.333 83 -37 115c-26.667 34 -60.667 51 -102 51s-75.333 -17 -102 -51c-24.667 -32 -37 -70.333 -37 -115s11.333 -82.334 34 -113.001
c25.333 -35.333 60.333 -53 105 -53zM429 58.001c-43.333 -45.333 -97.668 -68 -163.001 -68s-119.666 22.667 -162.999 68c-42 44 -63 98.667 -63 164c0 68 20.667 123.667 62 167c42 43.333 96.667 65 164 65s122 -21.667 164 -65c41.333 -43.333 62 -99 62 -167
c0 -65.333 -21 -120 -63 -164z" />
    <glyph glyph-name="ocircumflex" unicode="&#xf4;" horiz-adv-x="532" 
d="M266 56c44.667 0 79.667 17.668 105 53.001c22.667 31.333 34 69 34 113c0 44.667 -12.333 83 -37 115c-26.667 34 -60.667 51 -102 51s-75.333 -17 -102 -51c-24.667 -32 -37 -70.333 -37 -115s11.333 -82.334 34 -113.001c25.333 -35.333 60.333 -53 105 -53z
M429 58.001c-43.333 -45.333 -97.668 -68 -163.001 -68s-119.666 22.667 -162.999 68c-42 44 -63 98.667 -63 164c0 68 20.667 123.667 62 167c42 43.333 96.667 65 164 65s122 -21.667 164 -65c41.333 -43.333 62 -99 62 -167c0 -65.333 -21 -120 -63 -164z
M391.998 505.001h-70l-57 86l-56 -86h-69l86 126h79z" />
    <glyph glyph-name="otilde" unicode="&#xf5;" horiz-adv-x="532" 
d="M414 607c-8.66699 -64.667 -35.998 -97 -81.998 -97c-16.667 0 -41.334 6.66699 -74.001 20c-32 13.333 -53.667 20 -65 20c-19.333 0 -31 -13.333 -35 -40h-40c8.66699 64.667 36 97 82 97c16 0 39.333 -6.66699 70 -20c31.333 -13.333 52.666 -20 63.999 -20
c22.667 0 36 13.333 40 40h40zM266.002 56c44.667 0 79.667 17.668 105 53.001c22.667 31.333 34 69 34 113c0 44.667 -12.333 83 -37 115c-26.667 34 -60.667 51 -102 51s-75.333 -17 -102 -51c-24.667 -32 -37 -70.333 -37 -115s11.333 -82.334 34 -113.001
c25.333 -35.333 60.333 -53 105 -53zM429.002 58.001c-43.333 -45.333 -97.668 -68 -163.001 -68s-119.666 22.667 -162.999 68c-42 44 -63 98.667 -63 164c0 68 20.667 123.667 62 167c42 43.333 96.667 65 164 65s122 -21.667 164 -65c41.333 -43.333 62 -99 62 -167
c0 -65.333 -21 -120 -63 -164z" />
    <glyph glyph-name="odieresis" unicode="&#xf6;" horiz-adv-x="532" 
d="M266 56c44.667 0 79.667 17.668 105 53.001c22.667 31.333 34 69 34 113c0 44.667 -12.333 83 -37 115c-26.667 34 -60.667 51 -102 51s-75.333 -17 -102 -51c-24.667 -32 -37 -70.333 -37 -115s11.333 -82.334 34 -113.001c25.333 -35.333 60.333 -53 105 -53z
M429 58.001c-43.333 -45.333 -97.668 -68 -163.001 -68s-119.666 22.667 -162.999 68c-42 44 -63 98.667 -63 164c0 68 20.667 123.667 62 167c42 43.333 96.667 65 164 65s122 -21.667 164 -65c41.333 -43.333 62 -99 62 -167c0 -65.333 -21 -120 -63 -164z
M377.998 512.001h-82v87h82v-87zM234.998 512.001h-81v87h81v-87z" />
    <glyph glyph-name="divide" unicode="&#xf7;" horiz-adv-x="522" 
d="M308 -6c-13.333 -14 -28.333 -21.002 -45 -21.002c-18.667 0 -34.667 6.66699 -48 20s-20 29 -20 47c0 18.667 6.66699 34.334 20 47.001c12.667 12.667 28.334 19 47.001 19c17.333 0 32.666 -6.33301 45.999 -19c13.333 -13.333 20 -29 20 -47
c0 -17.333 -6.66699 -32.666 -20 -45.999zM195 399.998c0 18.667 6.66699 34.333 20 47c12.667 13.333 28.334 20 47.001 20c17.333 0 32.666 -6.66699 45.999 -20s20 -29 20 -47c0 -16.667 -6.66699 -31.667 -20 -45c-13.333 -14 -28.333 -21 -45 -21
c-18.667 0 -34.667 6.66699 -48 20c-13.333 12.667 -20 28 -20 46zM481 181.997h-440v76h440v-76z" />
    <glyph glyph-name="oslash" unicode="&#xf8;" horiz-adv-x="532" 
d="M82 -27l-26 22l49 62c-43.333 45.333 -65 100.333 -65 165c0 68 20.667 123.667 62 167c42 43.333 96.667 65 164 65c53.333 0 97.666 -13.333 132.999 -40l46 57l27 -22l-47 -57c44.667 -41.333 67 -98 67 -170c0 -65.333 -21 -120 -63 -164
c-43.333 -45.333 -97.666 -68 -162.999 -68c-52 0 -97 14.333 -135 43zM177 90c24.667 -22.667 54.333 -34 89 -34c44.667 0 79.667 17.667 105 53c22.667 31.333 34 69 34 113c0 40 -10.667 75.667 -32 107zM350.999 355c-24 22 -52.333 33 -85 33
c-41.333 0 -75.333 -17 -102 -51c-24.667 -32 -37 -70.333 -37 -115c0 -40 9.66699 -75 29 -105z" />
    <glyph glyph-name="ugrave" unicode="&#xf9;" horiz-adv-x="532" 
d="M462 0h-79.002v70h-2c-25.333 -53.333 -73.666 -80 -144.999 -80c-110.667 0 -166 63.333 -166 190v264h81v-230c0 -54 6.66699 -92.667 20 -116c14.667 -26 39.334 -40 74.001 -42c90 0 135 60.667 135 182v206h82v-444zM322.998 505h-58l-114 126h95z" />
    <glyph glyph-name="uacute" unicode="&#xfa;" horiz-adv-x="532" 
d="M267 505h-58l77 126h95zM462 0h-79.002v70h-2c-25.333 -53.333 -73.666 -80 -144.999 -80c-110.667 0 -166 63.333 -166 190v264h81v-230c0 -54 6.66699 -92.667 20 -116c14.667 -26 39.334 -40 74.001 -42c90 0 135 60.667 135 182v206h82v-444z" />
    <glyph glyph-name="ucircumflex" unicode="&#xfb;" horiz-adv-x="532" 
d="M462 0h-79.002v70h-2c-25.333 -53.333 -73.666 -80 -144.999 -80c-110.667 0 -166 63.333 -166 190v264h81v-230c0 -54 6.66699 -92.667 20 -116c14.667 -26 39.334 -40 74.001 -42c90 0 135 60.667 135 182v206h82v-444zM391.998 505h-70l-57 86l-56 -86h-69l86 126h79z
" />
    <glyph glyph-name="udieresis" unicode="&#xfc;" horiz-adv-x="532" 
d="M378 512h-82v87h82v-87zM235 512h-81v87h81v-87zM462 0h-79.002v70h-2c-25.333 -53.333 -73.666 -80 -144.999 -80c-110.667 0 -166 63.333 -166 190v264h81v-230c0 -54 6.66699 -92.667 20 -116c14.667 -26 39.334 -40 74.001 -42c90 0 135 60.667 135 182v206h82v-444z
" />
    <glyph glyph-name="yacute" unicode="&#xfd;" horiz-adv-x="435" 
d="M254 -20c-20.667 -56.667 -39.001 -95.6689 -55.001 -117.002c-28 -37.333 -65.333 -56 -112 -56c-22 0 -40.667 2 -56 6l6 67c10.667 -4.66699 23.334 -7 38.001 -7c30.667 0 56 17 76 51c14 24.667 21 44.334 21 59.001c-0.666992 6.66699 -5.66699 22.334 -15 47.001
l-151 414h90l119 -367h2l121 367h83zM218.999 504.998h-58l77 126h95z" />
    <glyph glyph-name="thorn" unicode="&#xfe;" horiz-adv-x="532" 
d="M282 56c40.667 0 72.332 19 94.999 57c18.667 32 28 69 28 111c0 44.667 -9.33301 81.667 -28 111c-21.333 35.333 -52.666 53 -93.999 53c-42 0 -75 -17.333 -99 -52c-22 -31.333 -33 -69.666 -33 -114.999c0 -42.667 10.333 -79.334 31 -110.001
c24 -36.667 57.333 -55 100 -55zM150.998 -183l-81 -0.000976562v836h81v-270h2c29.333 47.333 78.333 71 147 71c61.333 0 109.333 -22.333 144 -67c32 -41.333 48 -93.666 48 -156.999c0 -68 -15 -123.333 -45 -166c-34 -49.333 -82.667 -74 -146 -74
c-70 0 -119.333 23.667 -148 71h-2v-244z" />
    <glyph glyph-name="ydieresis" unicode="&#xff;" horiz-adv-x="435" 
d="M254 -20c-20.667 -56.667 -39.001 -95.6689 -55.001 -117.002c-28 -37.333 -65.333 -56 -112 -56c-22 0 -40.667 2 -56 6l6 67c10.667 -4.66699 23.334 -7 38.001 -7c30.667 0 56 17 76 51c14 24.667 21 44.334 21 59.001c-0.666992 6.66699 -5.66699 22.334 -15 47.001
l-151 414h90l119 -367h2l121 367h83zM329.999 511.998h-82v87h82v-87zM186.999 511.998h-81v87h81v-87z" />
    <glyph glyph-name="dotlessi" unicode="&#x131;" horiz-adv-x="242" 
d="M162 0h-82v444h82v-444z" />
    <glyph glyph-name="Lslash" unicode="&#x141;" horiz-adv-x="435" 
d="M418 0h-341v205l-56 -33v63l56 33v339h87v-289l170 100v-62l-170 -100v-179h254v-77z" />
    <glyph glyph-name="lslash" unicode="&#x142;" horiz-adv-x="242" 
d="M162 0h-82v296l-56 -45v62l56 45v295h82v-231l56 44v-61l-56 -45v-360z" />
    <glyph glyph-name="OE" unicode="&#x152;" horiz-adv-x="821" 
d="M767 0l-251.998 0.000976562c-14.667 0 -37.334 -0.666992 -68.001 -2c-30 -2 -52.667 -3 -68 -3c-98.667 0 -178.334 27.667 -239.001 83c-62.667 57.333 -94 135 -94 233c0 91.333 31 164.666 93 219.999c61.333 54 142 81 242 81c14.667 0 36 -0.666992 64 -2
c28.667 -2 49.667 -3 63 -3h253v-76h-245v-178h228v-76h-228v-200h251v-77zM429.002 531.001c-4.66699 0 -13.3311 1 -25.998 3c-11.333 1.33301 -20.333 2 -27 2c-74.667 0 -132.667 -19.333 -174 -58c-42.667 -39.333 -64 -95 -64 -167c0 -74.667 22.333 -133.667 67 -177
c43.333 -42 100.666 -63 171.999 -63c21.333 0 38.666 2 51.999 6v454z" />
    <glyph glyph-name="oe" unicode="&#x153;" horiz-adv-x="821" 
d="M699 264c0 31.333 -9.66699 59.333 -29 84c-21.333 26.667 -48 40 -80 40c-36 0 -64.667 -12 -86 -36c-21.333 -22.667 -32 -52 -32 -88h227zM257 56c40 0 72.668 17.666 98.001 52.999c23.333 32 35 69.667 35 113c0 41.333 -10.667 78 -32 110
c-25.333 37.333 -59 56 -101 56c-43.333 0 -77.333 -18.667 -102 -56c-21.333 -31.333 -32 -68 -32 -110c0 -47.333 10.333 -85.666 31 -114.999c23.333 -34 57.666 -51 102.999 -51zM740.001 18.999c-44.667 -19.333 -87.334 -29 -128.001 -29
c-93.333 0 -154 31.667 -182 95c-29.333 -63.333 -87.333 -95 -174 -95c-68 0 -122 22 -162 66c-38.667 42 -58 97.333 -58 166c0 62.667 19.333 116.334 58 161.001c42 47.333 96 71 162 71c86.667 0 145.334 -29 176.001 -87c27.333 58 80.333 87 159 87
c69.333 0 120.333 -25.667 153 -77c28 -42.667 42 -100.334 42 -173.001h-314c0 -42 13.667 -77 41 -105c27.333 -28.667 62 -43 104 -43c42.667 0 83.667 15.333 123 46v-83z" />
    <glyph glyph-name="Scaron" unicode="&#x160;" horiz-adv-x="435" 
d="M57 96c43.333 -20 85.332 -30 125.999 -30c29.333 0 55.333 7.66699 78 23c27.333 18.667 41 44 41 76c0 30 -13.667 55.333 -41 76c-12 9.33301 -41.667 25.333 -89 48c-42 20 -72 39.333 -90 58c-27.333 28 -41 63 -41 105c0 52 19 93 57 123
c35.333 28.667 81.333 43 138 43c46 0 89 -7.33301 129 -22l-12 -80c-43.333 16.667 -81.333 25 -114 25c-70.667 0 -106 -27 -106 -81c0 -25.333 13.667 -47.333 41 -66c7.33301 -5.33301 37.333 -21.333 90 -48c86.667 -44 130 -102.333 130 -175
c0 -62 -21.667 -108.667 -65 -140c-38.667 -27.333 -91 -41 -157 -41c-31.333 0 -72.666 8.33301 -123.999 25zM257.999 651h-79l-87 126h69l58 -86l56 86h69z" />
    <glyph glyph-name="scaron" unicode="&#x161;" horiz-adv-x="338" 
d="M37 87c31.333 -20.667 65 -31 101 -31c56 0 84 21 84 63c0 18 -10 34 -30 48c-7.33301 5.33301 -29.333 17 -66 35c-64 32 -96 70.667 -96 116c0 44.667 15 79 45 103c27.333 22 64.333 33 111 33c28 0 62 -5.66699 102 -17l-7 -72c-21.333 15.333 -50 23 -86 23
c-52 0 -78 -18 -78 -54c0 -20 10 -37 30 -51c7.33301 -4.66699 29.333 -15.667 66 -33c64 -30 96 -70.667 96 -122c0 -45.333 -16 -80.333 -48 -105c-28 -22 -63.667 -33 -107 -33c-52 0 -92.667 8 -122 24zM210 505h-79l-87 126h69l58 -86l56 86h69z" />
    <glyph glyph-name="Ydieresis" unicode="&#x178;" horiz-adv-x="531" 
d="M334 0h-87v254l-237 353h101l181 -272l177 272h102l-237 -353v-254zM402 671h-82v87h82v-87zM259 671h-81v87h81v-87z" />
    <glyph glyph-name="Zcaron" unicode="&#x17d;" horiz-adv-x="435" 
d="M448 0h-420v78l315 453h-305v76h405v-78l-314 -452h319v-77zM282 639h-79l-87 126h69l58 -86l56 86h69z" />
    <glyph glyph-name="zcaron" unicode="&#x17e;" horiz-adv-x="386" 
d="M398 0h-361v71l256 307h-243v66h338v-72l-256 -306h266v-66zM257 505h-79l-87 126h69l58 -86l56 86h69z" />
    <glyph glyph-name="florin" unicode="&#x192;" 
d="M231 -21c-11.333 -60 -24.998 -100.999 -40.998 -122.999c-24 -32.667 -63 -49 -117 -49c-18.667 0 -33.334 1.33301 -44.001 4l14 71c7.33301 -2.66699 16 -4 26 -4c39.333 0 64.333 30.667 75 92l62 329h-97l11 61h98l18 95c10 51.333 24 89 42 113
c26 33.333 64 50 114 50c7.33301 0 18 -1 32 -3c14.667 -2.66699 25 -4 31 -4l-12 -70c-14.667 3.33301 -26.667 5 -36 5c-28.667 0 -49.334 -9 -62.001 -27c-9.33301 -12.667 -17 -35.334 -23 -68.001l-18 -91h109l-12 -61h-110z" />
    <glyph glyph-name="circumflex" unicode="&#x2c6;" horiz-adv-x="242" 
d="M247 505h-70l-57 86l-56 -86h-69l86 126h79z" />
    <glyph glyph-name="caron" unicode="&#x2c7;" horiz-adv-x="242" 
d="M161 505h-79l-87 126h69l58 -86l56 86h69z" />
    <glyph glyph-name="breve" unicode="&#x2d8;" horiz-adv-x="242" 
d="M255 628c-8.66699 -78.667 -53.332 -118 -133.999 -118s-125.334 39.333 -134.001 118h43c8.66699 -45.333 39 -68 91 -68s82.333 22.667 91 68h43z" />
    <glyph glyph-name="dotaccent" unicode="&#x2d9;" horiz-adv-x="242" 
d="M162 512h-82v87h82v-87z" />
    <glyph glyph-name="ring" unicode="&#x2da;" horiz-adv-x="242" 
d="M121 525c14 0 26.668 5.66797 38.001 17.001c10.667 10.667 16 23 16 37s-5.33301 26.333 -16 37s-23.334 16 -38.001 16s-27.334 -5.33301 -38.001 -16s-16 -23 -16 -37c0 -14.667 5.33301 -27.334 16 -38.001s23.334 -16 38.001 -16zM210.001 579.001
c0 -24.667 -8.66699 -45.667 -26 -63c-18 -17.333 -39 -26 -63 -26c-24.667 0 -45.667 8.66699 -63 26s-26 38.333 -26 63c0 24 8.66699 44.667 26 62s38.333 26 63 26c24 0 45 -8.66699 63 -26c17.333 -17.333 26 -38 26 -62z" />
    <glyph glyph-name="ogonek" unicode="&#x2db;" horiz-adv-x="242" 
d="M230 -130c-24.667 -35.333 -57.667 -53 -99 -53c-48 0 -72 24 -72 72c0 36 33 73 99 111h42c-50 -39.333 -75 -75.333 -75 -108c0 -26.667 9.66699 -40 29 -40c20 0 36.333 8.33301 49 25z" />
    <glyph glyph-name="tilde" unicode="&#x2dc;" horiz-adv-x="242" 
d="M269 607c-8.66699 -64.667 -35.998 -97 -81.998 -97c-16.667 0 -41.334 6.66699 -74.001 20c-32 13.333 -53.667 20 -65 20c-19.333 0 -31 -13.333 -35 -40h-40c8.66699 64.667 36 97 82 97c16 0 39.333 -6.66699 70 -20c31.333 -13.333 52.666 -20 63.999 -20
c22.667 0 36 13.333 40 40h40z" />
    <glyph glyph-name="hungarumlaut" unicode="&#x2dd;" horiz-adv-x="242" 
d="M201 505h-58l77 126h95zM44 505h-59l78 126h94z" />
    <glyph glyph-name="Omega" unicode="&#x3a9;" horiz-adv-x="651" 
d="M599 0h-222.999v159c49.333 10 87.333 33 114 69c26 34 39 77 39 129c0 60 -19.667 109.667 -59 149s-89.333 59 -150 59c-59.333 0 -109.333 -19.667 -150 -59c-40 -40 -60 -89.667 -60 -149c0 -51.333 13.333 -94.666 40 -129.999c27.333 -37.333 65.333 -60 114 -68
v-159h-223v58h168v63c-52.667 14 -94 43.667 -124 89c-29.333 43.333 -44 93 -44 149c0 77.333 27.667 141.666 83 192.999c53.333 50 118.666 75 195.999 75c78 0 143.667 -24.667 197 -74c54.667 -50.667 82 -114.667 82 -192c0 -56.667 -14.333 -106.667 -43 -150
c-30 -45.333 -71.333 -75.333 -124 -90v-63h167v-58z" />
    <glyph glyph-name="pi" unicode="&#x3c0;" horiz-adv-x="496" 
d="M476 10c-22 -10 -42 -14.999 -60 -14.999c-32 0 -53.333 10.333 -64 31c-7.33301 13.333 -11 37.666 -11 72.999v258h-214v-357h-65v357h-60v60h470v-60h-66v-260c0 -31.333 11 -47 33 -47c12 0 24.333 3 37 9v-49z" />
    <glyph glyph-name="uni0E00" unicode="&#xe00;" horiz-adv-x="195" 
 />
    <glyph glyph-name="uni0E01" unicode="&#xe01;" horiz-adv-x="523" 
d="M479 0l-85 -0.000976562v333c0 38 -12 68 -36 90c-23.333 21.333 -54.666 32 -93.999 32c-65.333 0 -112.333 -26.333 -141 -79l56 -67c-26 -17.333 -39 -43.666 -39 -78.999v-230h-85v217c0 43.333 13.333 74 40 92l-57 67c12.667 40 39 73.667 79 101
c43.333 30 92.333 45 147 45c61.333 0 112.666 -17.667 153.999 -53c40.667 -35.333 61 -79.333 61 -132v-337z" />
    <glyph glyph-name="uni0E02" unicode="&#xe02;" horiz-adv-x="482" 
d="M438 180c0 -124.667 -64.667 -186.998 -194 -186.998c-64.667 0 -114.667 16.333 -150 49c-33.333 30 -50 70.667 -50 122v81c0 25.333 16.333 53.666 49 84.999c32 32 48 55 48 69v15c0 15.333 -7.33301 23 -22 23h-74v74h93c28 0 50 -8 66 -24
c14.667 -14.667 22 -34.334 22 -59.001v-28c0 -28 -16 -57 -48 -87c-32.667 -30 -49 -52.667 -49 -68v-68c0 -78 38.333 -117 115 -117c36.667 0 63.667 8.33301 81 25c18.667 18.667 28 50 28 94v332h85v-331z" />
    <glyph glyph-name="uni0E03" unicode="&#xe03;" horiz-adv-x="489" 
d="M445 180c0 -124.667 -64.668 -187.001 -194.001 -187.001c-64.667 0 -115 16.333 -151 49c-33.333 30.667 -50 71.334 -50 122.001v81c0 25.333 17.667 54.333 53 87c34.667 33.333 52 57.333 52 72v22c0 14.667 -8.33301 22 -25 22
c-17.333 0 -29.666 -10.333 -36.999 -31l-68 25v72l65 -30c15.333 21.333 38 32 68 32c23.333 0 42 -7.66699 56 -23c12.667 -15.333 19 -35.333 19 -60v-32c0 -27.333 -16.333 -56.333 -49 -87c-32.667 -30 -49 -53 -49 -69v-68c0 -78 38.667 -117 116 -117
c36.667 0 63.667 8.33301 81 25c18.667 18.667 28 50 28 94v332h85v-331z" />
    <glyph glyph-name="uni0E04" unicode="&#xe04;" horiz-adv-x="524" 
d="M480 0h-85.001v338c0 78 -44.333 117 -133 117c-41.333 0 -73.666 -10 -96.999 -30c-24 -20.667 -36 -49.667 -36 -87v-112c13.333 33.333 41.333 50 84 50h81v-75h-84c-25.333 0 -45.333 -8.33301 -60 -25c-14 -16 -21 -36.333 -21 -61v-115h-85v337
c0 55.333 19.667 100 59 134s92.333 51 159 51c66 0 119 -17 159 -51c39.333 -34 59 -78.667 59 -134v-337z" />
    <glyph glyph-name="uni0E05" unicode="&#xe05;" horiz-adv-x="536" 
d="M492 0h-85v357c0 46 -16.667 75 -50 87l-89 -47l-89 47c-33.333 -11.333 -50 -40.333 -50 -87v-131c13.333 33.333 41.333 50 84 50h81v-75h-84c-25.333 0 -45.333 -8.33301 -60 -25c-14 -16 -21 -36.333 -21 -61v-115h-85v352c0 92.667 43.333 148.667 130 168l94 -54
l94 54c86.667 -19.333 130 -75.333 130 -168v-352z" />
    <glyph glyph-name="uni0E06" unicode="&#xe06;" horiz-adv-x="543" 
d="M499 192c0 -63.333 -16.001 -112.334 -48.001 -147.001c-32.667 -34.667 -78.667 -52 -138 -52c-67.333 0 -118 24 -152 72v-65h-86v245c0 25.333 17.667 54.333 53 87c34.667 33.333 52 57.333 52 72v22c0 14.667 -8.33301 22 -25 22
c-17.333 0 -29.666 -10.333 -36.999 -31l-68 25v72l65 -30c15.333 21.333 38 32 68 32c23.333 0 42 -7.66699 56 -23c12.667 -15.333 19 -35.333 19 -60v-32c0 -27.333 -16.333 -56.333 -49 -87c-32.667 -30 -49 -53 -49 -69v-76c8.66699 -29.333 25.667 -54.666 51 -75.999
c25.333 -22 51.333 -33 78 -33c83.333 0 125 43.667 125 131v320h85v-319z" />
    <glyph glyph-name="uni0E07" unicode="&#xe07;" horiz-adv-x="509" 
d="M249 69c37.333 0 69.001 18.332 95.001 54.999c27.333 38.667 41 88.334 41 149.001c0 116 -35.667 174 -107 174c-17.333 0 -35 -3.66699 -53 -11l-3 74c20.667 6.66699 42.334 10 65.001 10c55.333 0 99.666 -21.333 132.999 -64c34 -44.667 51 -105.667 51 -183
c0 -84 -22.333 -151 -67 -201c-42.667 -48 -97.334 -72 -164.001 -72h-88l-140 511h89l120 -442h28z" />
    <glyph glyph-name="uni0E08" unicode="&#xe08;" horiz-adv-x="508" 
d="M252 68c38 0 69.334 16.667 94.001 50c26 36 39 84.333 39 145c0 66.667 -13 115.334 -39 146.001c-24.667 28.667 -63.667 43 -117 43c-64.667 0 -118.334 -24.667 -161.001 -74l-36 62c56 54.667 121.667 82 197 82c76.667 0 136 -22.667 178 -68
c42 -44.667 63 -108.334 63 -191.001c0 -78 -21 -141.333 -63 -190c-41.333 -48.667 -95.333 -73 -162 -73h-72l-44 186c-5.33301 21.333 -17 32 -35 32h-28v75h48c43.333 0 72 -22 86 -66l39 -159h13z" />
    <glyph glyph-name="uni0E09" unicode="&#xe09;" horiz-adv-x="523" 
d="M479 0l-85.001 0.00195312v64c-29.333 -47.333 -77.666 -71 -144.999 -71c-56 0 -99.333 13.667 -130 41s-46 64.666 -46 111.999v52c0 13.333 -5.66699 20 -17 20h-26v75h56c20.667 0 37.334 -7 50.001 -21c13.333 -14.667 20 -32.667 20 -54v-61
c0 -64.667 32.333 -97 97 -97c31.333 0 60.333 11 87 33c26.667 21.333 44.667 47.666 54 78.999v116c0 109.333 -50 164 -150 164c-66.667 0 -125.334 -24.667 -176.001 -74l-36 62c56 54.667 126.333 82 211 82c74.667 0 132.667 -20 174 -60s62 -94.667 62 -164v-298z
" />
    <glyph glyph-name="uni0E0A" unicode="&#xe0a;" horiz-adv-x="485" 
d="M439 180c0 -124.667 -65 -186.999 -195 -186.999c-64.667 0 -114.667 16.333 -150 49c-33.333 30 -50 70.667 -50 122v81c0 25.333 16.333 53.666 49 84.999c32 32 48 55 48 69v15c0 15.333 -7.33301 23 -22 23h-74v74h93c28 0 50 -8 66 -24
c14.667 -14.667 22 -34.334 22 -59.001v-28c0 -28 -16 -57 -48 -87c-32.667 -30 -49 -52.667 -49 -68v-68c0 -78 38.333 -117 115 -117c73.333 0 110 39.667 110 119v88c0 17.333 -5.66699 32 -17 44s-25 18 -41 18h-13l-11 33l85 149h92l-92 -144
c54.667 -11.333 82 -49.666 82 -114.999v-72z" />
    <glyph glyph-name="uni0E0B" unicode="&#xe0b;" horiz-adv-x="492" 
d="M446 180c0 -124.667 -65.001 -187.002 -195.001 -187.002c-64.667 0 -115 16.333 -151 49c-33.333 30.667 -50 71.334 -50 122.001v81c0 25.333 17.667 54.333 53 87c34.667 33.333 52 57.333 52 72v22c0 14.667 -8.33301 22 -25 22
c-17.333 0 -29.666 -10.333 -36.999 -31l-68 25v72l65 -30c15.333 21.333 38 32 68 32c23.333 0 42 -7.66699 56 -23c12.667 -15.333 19 -35.333 19 -60v-32c0 -27.333 -16.333 -56.333 -49 -87c-32.667 -30 -49 -53 -49 -69v-68c0 -78 38.667 -117 116 -117
c73.333 0 110 39.667 110 119v88c0 17.333 -5.66699 32 -17 44s-25 18 -41 18h-13l-11 33l85 149h92l-92 -144c54.667 -11.333 82 -49.666 82 -114.999v-72z" />
    <glyph glyph-name="uni0E0C" unicode="&#xe0c;" horiz-adv-x="828" 
d="M784 183c0 -126.667 -55.332 -190 -165.999 -190c-63.333 0 -111.333 23 -144 69v-62h-85v333c0 38.667 -11 68.667 -33 90c-21.333 21.333 -51.666 32 -90.999 32c-66.667 0 -114.334 -26.333 -143.001 -79l56 -67c-25.333 -16.667 -38 -43 -38 -79v-144
c0 -12.667 6 -19 18 -19h36v-67h-68c-20.667 0 -37.667 7.66699 -51 23c-13.333 14.667 -20 33.334 -20 56.001v138c0 43.333 13.333 74 40 92l-57 67c12.667 40 39 73.667 79 101c43.333 30 92.333 45 147 45c61.333 0 111.666 -17.333 150.999 -52s59 -78 59 -130v-172
c6.66699 -31.333 22.667 -57.333 48 -78c23.333 -20 49 -30 77 -30c35.333 0 61 9.66699 77 29c15.333 19.333 23 50.666 23 93.999v328h85v-328z" />
    <glyph glyph-name="uni0E0D" unicode="&#xe0d;" horiz-adv-x="828" 
d="M784 59c0 -64.667 -18.999 -115.335 -56.999 -152.002c-38 -37.333 -90.667 -56 -158 -56c-49.333 0 -94.333 8.66699 -135 26l10 70c42 -17.333 83 -26 123 -26c40.667 0 72.667 10.333 96 31c24 20.667 36 50 36 88v40c-24.667 -49.333 -69 -74 -133 -74
c-54.667 0 -97.667 15.333 -129 46c-32 30.667 -48 72.334 -48 125.001v156c0 38.667 -11 68.667 -33 90c-21.333 21.333 -51.666 32 -90.999 32c-66.667 0 -114.334 -26.333 -143.001 -79l56 -67c-25.333 -16.667 -38 -43 -38 -79v-144c0 -12.667 6 -19 18 -19h36v-67h-68
c-20.667 0 -37.667 7.66699 -51 23c-13.333 14.667 -20 33.334 -20 56.001v138c0 43.333 13.333 74 40 92l-57 67c12.667 40 39 73.667 79 101c43.333 30 92.333 45 147 45c61.333 0 111.666 -17.333 150.999 -52s59 -78 59 -130v-151c0 -34 9.66699 -61.333 29 -82
c18.667 -20.667 43.334 -31 74.001 -31c28 0 54.333 10.667 79 32c23.333 20.667 37.666 44.667 42.999 72v331h85v-452z" />
    <glyph glyph-name="uni0E0E" unicode="&#xe0e;" horiz-adv-x="543" 
d="M499 -200l-104 0.000976562c-36 33.333 -75.667 50 -119 50c-50 0 -95.333 -16.667 -136 -50l-21 65c41.333 36.667 90.333 55 147 55c54 0 103.333 -19.667 148 -59v472c0 38 -12 68 -36 90c-23.333 21.333 -54.666 32 -93.999 32c-65.333 0 -112.333 -26.333 -141 -79
l56 -67c-25.333 -16.667 -38 -43 -38 -79v-156c0 -20.667 -6.66699 -38.334 -20 -53.001c-12.667 -14 -28.667 -21 -48 -21h-66v67h31c12 0 18 6.33301 18 19v131c0 43.333 13 74 39 92l-57 67c12.667 40 39 73.667 79 101c43.333 30 92.333 45 147 45
c61.333 0 112.666 -17.667 153.999 -53c40.667 -35.333 61 -79.333 61 -132v-537z" />
    <glyph glyph-name="uni0E0F" unicode="&#xe0f;" horiz-adv-x="543" 
d="M499 -200l-81 0.000976562l-109 65c-21.333 -47.333 -59.333 -71 -114 -71c-43.333 0 -79.666 9.66699 -108.999 29l16 66c29.333 -18.667 59 -28 89 -28c25.333 0 47.666 8.33301 66.999 25c18.667 16.667 30.667 38 36 64l120 -72v455c0 38 -12 68 -36 90
c-23.333 21.333 -54.666 32 -93.999 32c-65.333 0 -112.333 -26.333 -141 -79l56 -67c-25.333 -16.667 -38 -43 -38 -79v-156c0 -20.667 -6.66699 -38.334 -20 -53.001c-12.667 -14 -28.667 -21 -48 -21h-66v67h31c12 0 18 6.33301 18 19v131c0 43.333 13 74 39 92l-57 67
c12.667 40 39 73.667 79 101c43.333 30 92.333 45 147 45c61.333 0 112.666 -17.667 153.999 -53c40.667 -35.333 61 -79.333 61 -132v-537z" />
    <glyph glyph-name="uni0E10" unicode="&#xe10;" horiz-adv-x="516" 
d="M251 68c38 0 69.333 16.666 94 49.999c26 36 39 84.333 39 145c0 66.667 -13 115.334 -39 146.001c-24.667 28.667 -63.667 43 -117 43c-64 0 -117.667 -25 -161 -75l-36 63c56 54.667 121.667 82 197 82c55.333 0 98 -9.66699 128 -29l57 62h98l-102 -107
c40 -38 60 -99.667 60 -185c0 -78 -21 -141.333 -63 -190c-41.333 -48.667 -95.333 -73 -162 -73h-72l-44 186c-5.33301 21.333 -17 32 -35 32h-28v75h48c43.333 0 72 -22 86 -66l39 -159h13zM440 -200.001h-120.001c-41.333 0 -73.333 14.667 -96 44
c-18 -29.333 -51 -44 -99 -44h-60v70h64c38.667 0 70.334 14.667 95.001 44c26 -29.333 56.667 -44 92 -44h41v70h83v-140z" />
    <glyph glyph-name="uni0E11" unicode="&#xe11;" horiz-adv-x="548" 
d="M504 0l-85.001 -0.00195312v353c0 64 -24 96 -72 96s-91.333 -28.667 -130 -86c-34.667 -51.333 -52 -99.666 -52 -144.999v-218h-85v213c0 40.667 11 81 33 121c22 40.667 33 65 33 73v12c0 19.333 -8 29 -24 29c-17.333 0 -29.666 -10.333 -36.999 -31l-64 25v72
l61 -30c15.333 21.333 38 32 68 32c20 0 36 -6.66699 48 -20c11.333 -13.333 17 -30.666 17 -51.999c36 50 80 75 132 75c104.667 0 157 -58.333 157 -175v-344z" />
    <glyph glyph-name="uni0E12" unicode="&#xe12;" horiz-adv-x="877" 
d="M833 191c0 -132 -54.667 -198.001 -164 -198.001c-59.333 0 -106.333 21.667 -141 65v-58h-88v362c0 52 -21 82 -63 90l-61 -58c-42.667 38.667 -64.334 58 -65.001 58c-36 -8 -64.333 -29.333 -85 -64c-21.333 -35.333 -32 -79.333 -32 -132
c0 -60 16.333 -107.667 49 -143c26.667 -29.333 55.667 -44 87 -44c26 0 48.333 3.66699 67 11v-70c-18 -8.66699 -43 -13 -75 -13c-55.333 0 -103.666 22.333 -144.999 67c-45.333 49.333 -68 113.333 -68 192c0 76.667 19 139 57 187c37.333 48 88 75.333 152 82l57 -58
c39.333 38.667 59.333 58 60 58c46 -6 82.667 -24.333 110 -55c26.667 -30 40 -67.667 40 -113v-200c28 -64 69.667 -96 125 -96c36 0 61.667 11 77 33c14 20.667 21 53.334 21 98.001v319h85v-320z" />
    <glyph glyph-name="uni0E13" unicode="&#xe13;" horiz-adv-x="830" 
d="M786 0l-86 -0.000976562v63c-33.333 -46.667 -79.666 -70 -138.999 -70c-114.667 0 -172 67.333 -172 202v138c0 38.667 -11 68.667 -33 90c-21.333 21.333 -51.666 32 -90.999 32c-66.667 0 -114.334 -26.333 -143.001 -79l56 -67c-25.333 -16.667 -38 -43 -38 -79v-144
c0 -12.667 6 -19 18 -19h36v-67h-68c-20.667 0 -37.667 7.66699 -51 23c-13.333 14.667 -20 33.334 -20 56.001v138c0 43.333 13.333 74 40 92l-57 67c12.667 40 39 73.667 79 101c43.333 30 92.333 45 147 45c61.333 0 111.666 -17.333 150.999 -52s59 -78 59 -130v-145
c0 -90 37.667 -135 113 -135c56.667 0 94.667 37.333 114 112v339h85v-511z" />
    <glyph glyph-name="uni0E14" unicode="&#xe14;" horiz-adv-x="563" 
d="M519 0h-85v309c0 42.667 -13.667 77 -41 103s-63.333 39 -108 39c-49.333 0 -88.333 -17.667 -117 -53c-30 -36 -45 -85.333 -45 -148c0 -63.333 14.667 -111 44 -143c22.667 -25.333 50 -38 82 -38c26 0 48.333 3.66699 67 11v-70c-18 -8.66699 -43 -13 -75 -13
c-56 0 -102.667 20.333 -140 61c-42.667 46 -64 110 -64 192c0 78 22.333 142.333 67 193c46 52.667 106.333 79 181 79c72 0 129.667 -21 173 -63c40.667 -40 61 -90.333 61 -151v-308z" />
    <glyph glyph-name="uni0E15" unicode="&#xe15;" horiz-adv-x="578" 
d="M534 0h-85.001v362c0 52 -21 82 -63 90l-70 -68c-50.667 45.333 -76.334 68 -77.001 68c-36 -8 -64.333 -29.333 -85 -64c-21.333 -35.333 -32 -79.333 -32 -132c0 -60 16.333 -107.667 49 -143c26.667 -29.333 55.667 -44 87 -44c26 0 48.333 3.66699 67 11v-70
c-18 -8.66699 -43 -13 -75 -13c-55.333 0 -103.666 22.333 -144.999 67c-45.333 49.333 -68 113.333 -68 192c0 76.667 19 139 57 187c37.333 48 88 75.333 152 82l70 -67c44.667 44.667 67.334 67 68.001 67c46 -6 82.667 -24.333 110 -55c26.667 -30 40 -67.667 40 -113
v-357z" />
    <glyph glyph-name="uni0E16" unicode="&#xe16;" horiz-adv-x="524" 
d="M480 0l-85.001 -0.000976562v333c0 38 -11.333 68 -34 90c-22 21.333 -52.667 32 -92 32c-69.333 0 -118.333 -26.333 -147 -79l56 -67c-25.333 -16.667 -38 -43 -38 -79v-144c0 -12.667 6 -19 18 -19h36v-67h-68c-20.667 0 -37.667 7.66699 -51 23
c-13.333 14.667 -20 33.334 -20 56.001v138c0 43.333 13.333 74 40 92l-57 67c12.667 39.333 39.667 73 81 101c44.667 30 94.334 45 149.001 45c61.333 0 112 -17.333 152 -52s60 -78 60 -130v-340z" />
    <glyph glyph-name="uni0E17" unicode="&#xe17;" horiz-adv-x="521" 
d="M477 0h-85.001v334c0 78 -36.333 117 -109 117c-70.667 0 -122 -35.667 -154 -107v-344h-85v511h85v-71c38.667 54.667 94.334 82 167.001 82c58 0 102.667 -16.333 134 -49s47 -79.667 47 -141v-332z" />
    <glyph glyph-name="uni0E18" unicode="&#xe18;" horiz-adv-x="490" 
d="M457 161c0 -59.333 -16.668 -102.334 -50.001 -129.001c-32.667 -26 -86 -39 -160 -39c-72.667 0 -126 14.333 -160 43c-33.333 28 -50 72 -50 132v40h81v-40c0 -72 43 -108 129 -108c46.667 0 79.334 7.66699 98.001 23c19.333 15.333 29 41.333 29 78v29
c0 35.333 -17.333 54 -52 56l-166 13c-36 3.33301 -64.667 16.333 -86 39c-22 22.667 -33 51.667 -33 87c0 40.667 17.333 73.334 52 98.001c36 26 84.333 39 145 39c75.333 0 140.333 -14 195 -42l-12 -74c-48 30.667 -105.667 46 -173 46c-85.333 0 -128 -22 -128 -66
c0 -35.333 15.667 -54.333 47 -57l183 -17c32 -3.33301 58.333 -16 79 -38c21.333 -22.667 32 -50.667 32 -84v-29z" />
    <glyph glyph-name="uni0E19" unicode="&#xe19;" horiz-adv-x="519" 
d="M475 0h-85.999v63c-33.333 -46.667 -85 -70 -155 -70c-58 0 -104 17.667 -138 53c-34.667 36 -52 85.667 -52 149v316h85v-302c0 -99.333 43.667 -149 131 -149c27.333 0 53.666 10.333 78.999 31c26 22 43 49 51 81v339h85v-511z" />
    <glyph glyph-name="uni0E1A" unicode="&#xe1a;" horiz-adv-x="530" 
d="M486 188c0 -62 -20.002 -110.333 -60.002 -145c-39.333 -33.333 -93 -50 -161 -50s-121.667 16.667 -161 50c-40 34.667 -60 83 -60 145v323h85v-323c0 -39.333 12.667 -70.666 38 -93.999c24.667 -22.667 57.334 -34 98.001 -34s73.334 11.333 98.001 34
c25.333 23.333 38 54.666 38 93.999v323h85v-323z" />
    <glyph glyph-name="uni0E1B" unicode="&#xe1b;" horiz-adv-x="530" 
d="M486 188c0 -62 -20.002 -110.333 -60.002 -145c-39.333 -33.333 -93 -50 -161 -50s-121.667 16.667 -161 50c-40 34.667 -60 83 -60 145v323h85v-323c0 -39.333 12.667 -70.666 38 -93.999c24.667 -22.667 57.334 -34 98.001 -34s73.334 11.333 98.001 34
c25.333 23.333 38 54.666 38 93.999v498h85v-498z" />
    <glyph glyph-name="uni0E1C" unicode="&#xe1c;" horiz-adv-x="572" 
d="M528 0h-73l-169 276l-169 -276h-73v428c0 23.333 8 43 24 59c15.333 16 35 24 59 24h47v-74h-20c-18 0 -27 -9 -27 -27v-212c0 -24.667 -1.33301 -49.667 -4 -75l14 42l134 223h30l135 -225l13 -50c-2.66699 29.333 -4 59 -4 89v309h83v-511z" />
    <glyph glyph-name="uni0E1D" unicode="&#xe1d;" horiz-adv-x="572" 
d="M528 0h-73l-169 276l-169 -276h-73v428c0 23.333 8 43 24 59c15.333 16 35 24 59 24h47v-74h-20c-18 0 -27 -9 -27 -27v-212c0 -24.667 -1.33301 -49.667 -4 -75l14 42l134 223h30l135 -225l13 -50c-2.66699 29.333 -4 59 -4 89v484h83v-686z" />
    <glyph glyph-name="uni0E1E" unicode="&#xe1e;" horiz-adv-x="610" 
d="M491 0h-77l-109 310l-109 -310h-77l-102 511h88l60 -350c1.33301 -6 2 -18.667 2 -38c2 20.667 4 33.334 6 38.001l114 325h36l114 -325c2 -4.66699 4 -17.334 6 -38.001c0 19.333 0.666992 32 2 38l60 350h88z" />
    <glyph glyph-name="uni0E1F" unicode="&#xe1f;" horiz-adv-x="615" 
d="M491 0h-77l-109 310l-109 -310h-77l-102 511h88l60 -350c1.33301 -6 2 -18.667 2 -38c2 20.667 4 33.334 6 38.001l114 325h36l114 -325c2 -4.66699 4 -17.334 6 -38.001c0 19.333 0.666992 32 2 38l91 525h88z" />
    <glyph glyph-name="uni0E20" unicode="&#xe20;" horiz-adv-x="543" 
d="M499 0l-85 0.000976562v333c0 38 -12 68 -36 90c-23.333 21.333 -54.666 32 -93.999 32c-65.333 0 -112.333 -26.333 -141 -79l56 -67c-25.333 -16.667 -38 -43 -38 -79v-156c0 -20.667 -6.66699 -38.334 -20 -53.001c-12.667 -14 -28.667 -21 -48 -21h-66v67h31
c12 0 18 6.33301 18 19v131c0 43.333 13 74 39 92l-57 67c12.667 40 39 73.667 79 101c43.333 30 92.333 45 147 45c61.333 0 112.666 -17.667 153.999 -53c40.667 -35.333 61 -79.333 61 -132v-337z" />
    <glyph glyph-name="uni0E21" unicode="&#xe21;" horiz-adv-x="520" 
d="M476 191c0 -62 -16.333 -110.333 -49 -145c-33.333 -35.333 -79.333 -53 -138 -53c-66.667 0 -119 24 -157 72v-65h-88v511h85v-347c13.333 -27.333 34 -51.333 62 -72s54.333 -31 79 -31c80.667 0 121 43.667 121 131v319h85v-320z" />
    <glyph glyph-name="uni0E22" unicode="&#xe22;" horiz-adv-x="511" 
d="M467 203c0 -140 -67.666 -209.999 -202.999 -209.999c-146.667 0 -220 54.333 -220 163c0 64 28 105.667 84 125c-56 14.667 -84 53.667 -84 117c0 34 11 62 33 84c22 21.333 50 32 84 32c28 0 53 -3.66699 75 -11l-9 -71c-14.667 6 -30.334 9 -47.001 9
c-36.667 0 -55 -19 -55 -57c0 -20.667 8 -37.334 24 -50.001c15.333 -11.333 33.333 -17 54 -17h86l7 -70h-82c-26 0 -47.333 -7.66699 -64 -23c-16.667 -16 -25 -37 -25 -63c0 -32.667 12.667 -58 38 -76c24 -16.667 56.333 -25 97 -25c81.333 0 122 44 122 132v319h85
v-308z" />
    <glyph glyph-name="uni0E23" unicode="&#xe23;" horiz-adv-x="445" 
d="M369 405c-43.333 31.333 -92.667 47.001 -148 47.001c-67.333 0 -101 -22.667 -101 -68c0 -22 15.333 -40.333 46 -55c8 -4 41.667 -16 101 -36c97.333 -32.667 146 -80.334 146 -143.001c0 -48 -16 -85.667 -48 -113c-34.667 -29.333 -84.334 -44 -149.001 -44
c-69.333 0 -126.666 13.333 -171.999 40l11 76c54 -30.667 103.667 -46 149 -46c82.667 0 124 26.333 124 79c0 24.667 -15 45 -45 61c-12 6 -45.333 18.333 -100 37c-46 14.667 -79.667 30.667 -101 48c-30 24 -45 55.667 -45 95c0 40 16 73 48 99
c32.667 26.667 74.667 40 126 40c71.333 0 128.333 -15 171 -45z" />
    <glyph glyph-name="uni0E24" unicode="&#xe24;" horiz-adv-x="524" 
d="M480 -200l-85.001 -0.000976562v533c0 38 -11.333 68 -34 90c-22 21.333 -52.667 32 -92 32c-69.333 0 -118.333 -26.333 -147 -79l56 -67c-25.333 -16.667 -38 -43 -38 -79v-144c0 -12.667 6 -19 18 -19h36v-67h-68c-20.667 0 -37.667 7.66699 -51 23
c-13.333 14.667 -20 33.334 -20 56.001v138c0 43.333 13.333 74 40 92l-57 67c12.667 39.333 39.667 73 81 101c44.667 30 94.334 45 149.001 45c61.333 0 112 -17.333 152 -52s60 -78 60 -130v-540z" />
    <glyph glyph-name="uni0E25" unicode="&#xe25;" horiz-adv-x="505" 
d="M461 0h-85.001v238h-128c-42 0 -75.333 -9 -100 -27c-24 -17.333 -36 -40.333 -36 -69c0 -52 28.667 -78 86 -78c22 0 43 3.33301 63 10l3 -71c-25.333 -6.66699 -50 -10 -74 -10c-48 0 -87 14.667 -117 44c-28.667 28 -43 63 -43 105c0 50 19 90 57 120
c40 31.333 96.667 47 170 47h119v31c0 75.333 -44 113 -132 113c-64 0 -121 -24.333 -171 -73l-35 60c56 54.667 126 82 210 82c68.667 0 121.334 -17.333 158.001 -52s55 -83.667 55 -147v-323z" />
    <glyph glyph-name="uni0E26" unicode="&#xe26;" horiz-adv-x="543" 
d="M499 -200l-85 0.000976562v533c0 38 -12 68 -36 90c-23.333 21.333 -54.666 32 -93.999 32c-65.333 0 -112.333 -26.333 -141 -79l56 -67c-25.333 -16.667 -38 -43 -38 -79v-156c0 -20.667 -6.66699 -38.334 -20 -53.001c-12.667 -14 -28.667 -21 -48 -21h-66v67h31
c12 0 18 6.33301 18 19v131c0 43.333 13 74 39 92l-57 67c12.667 40 39 73.667 79 101c43.333 30 92.333 45 147 45c61.333 0 112.666 -17.667 153.999 -53c40.667 -35.333 61 -79.333 61 -132v-537z" />
    <glyph glyph-name="uni0E27" unicode="&#xe27;" horiz-adv-x="481" 
d="M49 109c50.667 -30 100.332 -45 148.999 -45c106 0 159 64.333 159 193c0 61.333 -14.667 109.333 -44 144c-27.333 32 -62.666 48 -105.999 48c-55.333 0 -108.666 -17.667 -159.999 -53l-18 72c59.333 36.667 123.666 55 192.999 55c65.333 0 118 -23.667 158 -71
c41.333 -48.667 62 -114 62 -196s-21.667 -146.667 -65 -194c-42.667 -46.667 -99.667 -70 -171 -70s-130 16 -176 48z" />
    <glyph glyph-name="uni0E28" unicode="&#xe28;" horiz-adv-x="526" 
d="M480 0h-85.001v338c0 78 -44.333 117 -133 117c-41.333 0 -73.666 -10 -96.999 -30c-24 -20.667 -36 -49.667 -36 -87v-112c13.333 33.333 41.333 50 84 50h81v-75h-84c-25.333 0 -45.333 -8.33301 -60 -25c-14 -16 -21 -36.333 -21 -61v-115h-85v337
c0 55.333 19.667 100 59 134s92.333 51 159 51c44 0 82 -9 114 -27l49 60h91l-81 -101c30 -28.667 45 -67.667 45 -117v-337z" />
    <glyph glyph-name="uni0E29" unicode="&#xe29;" horiz-adv-x="560" 
d="M488 188c0 -62 -20.333 -110.333 -61 -145c-39.333 -33.333 -93 -50 -161 -50s-121.667 16.667 -161 50c-40.667 34.667 -61 83 -61 145v323h85v-323c0 -85.333 45.667 -128 137 -128s137 42.667 137 128v68h-111v75h111v180h85v-180h72l-19 -75h-53v-68z" />
    <glyph glyph-name="uni0E2A" unicode="&#xe2a;" horiz-adv-x="519" 
d="M461 0l-85 -0.000976562v238h-128c-42 0 -75.333 -9 -100 -27c-24 -17.333 -36 -40.333 -36 -69c0 -52 28.667 -78 86 -78c22 0 43 3.33301 63 10l3 -71c-25.333 -6.66699 -50 -10 -74 -10c-48 0 -87 14.667 -117 44c-28.667 28 -43 63 -43 105c0 50 19 90 57 120
c40 31.333 96.667 47 170 47h119v31c0 75.333 -44 113 -132 113c-64 0 -121 -24.333 -171 -73l-35 60c56 54.667 126 82 210 82c48 0 89 -10.333 123 -31l52 64h91l-91 -108c25.333 -29.333 38 -70.666 38 -123.999v-323z" />
    <glyph glyph-name="uni0E2B" unicode="&#xe2b;" horiz-adv-x="498" 
d="M488 0h-92.001l-75 232c-15.333 46.667 -43.666 75 -84.999 85l-107 -94v-223h-85v511h85v-198l225 198h115l-177 -148c57.333 -22 96 -63.667 116 -125z" />
    <glyph glyph-name="uni0E2C" unicode="&#xe2c;" horiz-adv-x="572" 
d="M528 0h-73.001l-169 276l-169 -276h-73v511h83v-313c0 -24.667 -1.33301 -49.667 -4 -75l14 42l134 223h30l135 -225l13 -50c-2.66699 29.333 -4 59 -4 89v208c0 20.667 -6.33301 37 -19 49c-13.333 12.667 -30.666 19 -51.999 19h-18l-11 33l98 175h92l-99 -170
c61.333 -12.667 92 -54.667 92 -126v-390z" />
    <glyph glyph-name="uni0E2D" unicode="&#xe2d;" horiz-adv-x="515" 
d="M215 225l-77 0.00195312c-12 0 -18 -6.33301 -18 -19v-42c0 -68 43.667 -102 131 -102c49.333 0 85.333 15 108 45c23.333 31.333 35 81.666 35 150.999c0 128 -49 192 -147 192c-64 0 -120.667 -24 -170 -72l-36 62c56 54.667 124.667 82 206 82
c75.333 0 133 -24 173 -72c39.333 -46.667 59 -111.667 59 -195c0 -174.667 -75.333 -262 -226 -262c-71.333 0 -125.333 16 -162 48c-34 30 -51 72 -51 126v50c0 25.333 8 45.666 24 60.999c16 14 37 21 63 21h88v-74z" />
    <glyph glyph-name="uni0E2E" unicode="&#xe2e;" horiz-adv-x="515" 
d="M215 225l-77 0.00292969c-12 0 -18 -6.33301 -18 -19v-42c0 -68 43.667 -102 131 -102c49.333 0 85.333 15 108 45c23.333 31.333 35 81.666 35 150.999c0 128 -49 192 -147 192c-64 0 -120.667 -24 -170 -72l-36 62c56 54.667 124.667 82 206 82
c44.667 0 83.667 -8.66699 117 -26l48 59h93l-85 -106c39.333 -46.667 59 -111.334 59 -194.001c0 -174.667 -75.333 -262 -226 -262c-71.333 0 -125.333 16 -162 48c-34 30 -51 72 -51 126v50c0 25.333 8 45.666 24 60.999c16 14 37 21 63 21h88v-74z" />
    <glyph glyph-name="uni0E2F" unicode="&#xe2f;" horiz-adv-x="482" 
d="M438 0h-85v381c-24.667 -51.333 -69.667 -77 -135 -77c-55.333 0 -99 15.333 -131 46c-31.333 30 -47 70 -47 120v41h83v-34c0 -32 9.66699 -57.667 29 -77c20 -19.333 46.333 -29 79 -29c35.333 0 65 12.667 89 38s36 55.333 36 90v12h82v-511z" />
    <glyph glyph-name="uni0E30" unicode="&#xe30;" horiz-adv-x="259" 
d="M219 330h-113c-17.333 0 -32.333 6 -45 18c-14 12.667 -21 28 -21 46v54h85v-36c0 -10 5.66699 -15 17 -15h77v-67zM219 73h-113c-17.333 0 -32.333 6 -45 18c-14 12.667 -21 28 -21 46v54h85v-36c0 -10 5.66699 -15 17 -15h77v-67z" />
    <glyph glyph-name="uni0E31" unicode="&#xe31;" horiz-adv-x="0" 
d="M36 579h-238c-20 0 -37 6.66699 -51 20c-14 14 -21 31.333 -21 52v49h85v-40c0 -10 5.66699 -15 17 -15h208v-66z" />
    <glyph glyph-name="uni0E32" unicode="&#xe32;" horiz-adv-x="434" 
d="M390 0h-85.001v333c0 78.667 -36.667 118 -110 118c-60 0 -111.333 -22.667 -154 -68l-28 59c54.667 53.333 118 80 190 80c58.667 0 104.334 -17.333 137.001 -52c33.333 -34.667 50 -82.667 50 -144v-326z" />
    <glyph glyph-name="uni0E33" unicode="&#xe33;" horiz-adv-x="434" 
d="M390 0h-85.001v333c0 78.667 -36.667 118 -110 118c-60 0 -111.333 -22.667 -154 -68l-28 59c54.667 53.333 118 80 190 80c58.667 0 104.334 -17.333 137.001 -52c33.333 -34.667 50 -82.667 50 -144v-326zM-1.00098 654c0 -24.667 -8.66699 -45.334 -26 -62.001
c-16.667 -17.333 -37.334 -26 -62.001 -26s-45.334 8.66699 -62.001 26c-17.333 16.667 -26 37.334 -26 62.001s8.66699 45.334 26 62.001c16.667 17.333 37.334 26 62.001 26s45.334 -8.66699 62.001 -26c17.333 -16.667 26 -37.334 26 -62.001zM-89.001 618
c24 0 36 12.333 36 37c0 24 -12 36 -36 36s-36 -12 -36 -36c0 -24.667 12 -37 36 -37z" />
    <glyph glyph-name="uni0E34" unicode="&#xe34;" horiz-adv-x="0" 
d="M-44 579h-391v72h391v-72z" />
    <glyph glyph-name="uni0E35" unicode="&#xe35;" horiz-adv-x="0" 
d="M-44 579h-391v72h312v70h79v-142z" />
    <glyph glyph-name="uni0E36" unicode="&#xe36;" horiz-adv-x="0" 
d="M-169 651c-1.33301 5.33301 -2 10.333 -2 15c0 22 7.66699 40.667 23 56c16 15.333 35.667 23 59 23s43.333 -7.66699 60 -23c16 -15.333 24 -34 24 -56c0 -24 -8.33301 -44.333 -25 -61c-17.333 -17.333 -39 -26 -65 -26h-340v72h266zM-87 636c20 0 30 10 30 30
s-10 30 -30 30s-30 -10 -30 -30s10 -30 30 -30z" />
    <glyph glyph-name="uni0E37" unicode="&#xe37;" horiz-adv-x="0" 
d="M-44 579h-391v72h211v64h67v-64h42v64h71v-136z" />
    <glyph glyph-name="uni0E38" unicode="&#xe38;" horiz-adv-x="0" 
d="M-44 -251h-75v117c0 8.66699 -4 13 -12 13h-51v63h83c16 0 29.333 -5.66699 40 -17c10 -10.667 15 -23.667 15 -39v-137z" />
    <glyph glyph-name="uni0E39" unicode="&#xe39;" horiz-adv-x="0" 
d="M-44 -152c0 -33.333 -10.667 -59.667 -32 -79c-22 -19.333 -52.667 -29 -92 -29c-36.667 0 -65.667 9.66699 -87 29c-20.667 18.667 -31 43.667 -31 75v36h-48v62h116v-98c0 -32.667 16.667 -49 50 -49c34 0 51 17.667 51 53v94h73v-94z" />
    <glyph glyph-name="uni0E3A" unicode="&#xe3a;" horiz-adv-x="0" 
d="M-48 -145c-11.333 -10.667 -24.666 -16 -39.999 -16s-28.333 5.33301 -39 16c-11.333 10.667 -17 23.334 -17 38.001s5.66699 27.667 17 39c10.667 10.667 23.667 16 39 16s28.666 -5.33301 39.999 -16c10.667 -10.667 16 -23.667 16 -39
c0 -14.667 -5.33301 -27.334 -16 -38.001z" />
    <glyph glyph-name="uni0E3F" unicode="&#xe3f;" horiz-adv-x="532" 
d="M265 -92h-50v92h-143v607h143v94h50v-94c123.333 -8 185 -59 185 -153c0 -75.333 -41.667 -123.333 -125 -144v-2c42 -3.33301 75.667 -18 101 -44c26 -26 39 -60 39 -102c0 -101.333 -66.667 -155 -200 -161v-93zM265 350c65.333 8 98 39.667 98 95
c0 56 -32.667 86 -98 90v-185zM215 348v188h-56v-188h56zM265 73c72 7.33301 108 39.666 108 96.999c0 60.667 -36 95.334 -108 104.001v-201zM215 71v206h-56v-206h56z" />
    <glyph glyph-name="uni0E40" unicode="&#xe40;" horiz-adv-x="189" 
d="M140 0h-85v511h85v-511z" />
    <glyph glyph-name="uni0E41" unicode="&#xe41;" horiz-adv-x="376" 
d="M325 0h-85v511h85v-511zM140 0h-85v511h85v-511z" />
    <glyph glyph-name="uni0E42" unicode="&#xe42;" horiz-adv-x="251" 
d="M180 0l-84.999 0.000976562v580c0 80 -28.667 133.667 -86 161c-7.33301 7.33301 -11 13.333 -11 18c47.333 68.667 112 103 194 103c60 0 114.333 -14 163 -42l-6 -73c-50 30 -97 45 -141 45c-50.667 0 -91 -11.667 -121 -35
c25.333 -14.667 46.666 -38.334 63.999 -71.001c19.333 -36 29 -74 29 -114v-572z" />
    <glyph glyph-name="uni0E43" unicode="&#xe43;" horiz-adv-x="234" 
d="M174 0h-85v555c0 38 17 76 51 114c33.333 37.333 50 64.333 50 81c0 34 -23 51 -69 51c-45.333 0 -82.333 -23 -111 -69l-43 49c36 56 87.667 84 155 84c48 0 85.667 -10.333 113 -31c24.667 -19.333 37 -44.333 37 -75c0 -25.333 -16.333 -57.333 -49 -96
s-49 -81 -49 -127v-536z" />
    <glyph glyph-name="uni0E44" unicode="&#xe44;" horiz-adv-x="252" 
d="M190 0l-85 0.000976562v604c0 83.333 24.667 139.666 74 168.999h-234v61h326v-56c-54 -24 -81 -74.667 -81 -152v-626z" />
    <glyph glyph-name="uni0E45" unicode="&#xe45;" horiz-adv-x="434" 
d="M390 -200h-85.001v533c0 78.667 -36.667 118 -110 118c-60 0 -111.333 -22.667 -154 -68l-28 59c54.667 53.333 118 80 190 80c58.667 0 104.334 -17.333 137.001 -52c33.333 -34.667 50 -82.667 50 -144v-526z" />
    <glyph glyph-name="uni0E46" unicode="&#xe46;" horiz-adv-x="498" 
d="M447 -200h-85v580c0 47.333 -15.333 74 -46 80l-72 -56l-76 56c-38 -9.33301 -57 -30 -57 -62c0 -36.667 18.667 -55 56 -55c10 0 18.667 1.33301 26 4l5 -55c-10.667 -4 -25 -6 -43 -6c-30 0 -55.333 10 -76 30c-22.667 21.333 -34 48.666 -34 81.999
c0 68.667 41.667 110 125 124l74 -56l73 56c40.667 -2.66699 73 -18.667 97 -48c22 -27.333 33 -60.666 33 -99.999v-574z" />
    <glyph glyph-name="uni0E47" unicode="&#xe47;" horiz-adv-x="0" 
d="M-82 575l-74.999 -0.00292969c-27.333 0 -50 14.667 -68 44c-14.667 -29.333 -44 -44 -88 -44c-26.667 0 -48.334 8.66699 -65.001 26c-16.667 16.667 -25 38.334 -25 65.001s9.33301 48.334 28 65.001c20 18.667 49 28 87 28h99c26.667 0 40 11 40 33v24h77v-27
c0 -25.333 -9 -46.666 -27 -63.999s-42 -26 -72 -26h-115c-26 0 -39 -10 -39 -30c0 -18.667 12.333 -28 37 -28c30 0 51.333 8.33301 64 25c15.333 -16.667 34.333 -25 57 -25h85v-66z" />
    <glyph glyph-name="uni0E48" unicode="&#xe48;" horiz-adv-x="0" 
d="M-44 767h-79v113h79v-113z" />
    <glyph glyph-name="uni0E49" unicode="&#xe49;" horiz-adv-x="0" 
d="M34 767h-174c-30.667 0 -46 13.667 -46 41v15c0 10 -5.66699 15 -17 15h-47v64h80c34 0 51 -14 51 -42v-13c0 -10 5.66699 -15 17 -15h136v-65z" />
    <glyph glyph-name="uni0E4A" unicode="&#xe4a;" horiz-adv-x="0" 
d="M-76 767l-8 14.999c6 6 9 13.667 9 23c0 18 -9.33301 28 -28 30l-44 -40l-46 38c-15.333 -5.33301 -23 -14.666 -23 -27.999c0 -4.66699 2.33301 -12.334 7 -23.001l-9 -16h-57c-5.33301 14 -8 29.667 -8 47c0 19.333 7 36.333 21 51c15.333 16 35.666 25.333 60.999 28
l54 -51l48 52c52.667 -2 79 -30.333 79 -85c21.333 10 32 34.333 32 73c0 14 -2 29 -6 45h72c2.66699 -10 4.33398 -23.333 5.00098 -40c0 -33.333 -11.667 -61.666 -35 -84.999c-23.333 -22.667 -51.333 -34 -84 -34h-40z" />
    <glyph glyph-name="uni0E4B" unicode="&#xe4b;" horiz-adv-x="0" 
d="M13 812l-65 2l2 -47h-77l2 47l-65 -2v54l65 -2l-2 48h77l-2 -48l65 2v-54z" />
    <glyph glyph-name="uni0E4C" unicode="&#xe4c;" horiz-adv-x="0" 
d="M12 742h-67c-22 0 -33 -10 -33 -30v-18h-86v36c0 22 8 40.667 24 56c16 14.667 35.333 22 58 22h104v-66z" />
    <glyph glyph-name="uni0E4D" unicode="&#xe4d;" horiz-adv-x="0" 
d="M-1 654c0 -24.667 -8.66699 -45.334 -26 -62.001c-16.667 -17.333 -37.334 -26 -62.001 -26s-45.334 8.66699 -62.001 26c-17.333 16.667 -26 37.334 -26 62.001s8.66699 45.334 26 62.001c16.667 17.333 37.334 26 62.001 26s45.334 -8.66699 62.001 -26
c17.333 -16.667 26 -37.334 26 -62.001zM-89 618c24 0 36 12.333 36 37c0 24 -12 36 -36 36s-36 -12 -36 -36c0 -24.667 12 -37 36 -37z" />
    <glyph glyph-name="uni0E4E" unicode="&#xe4e;" horiz-adv-x="0" 
 />
    <glyph glyph-name="uni0E4F" unicode="&#xe4f;" horiz-adv-x="520" 
d="M263 6c-26.667 0 -51.834 5.16699 -75.501 15.5s-44.167 24.166 -61.5 41.499s-31.166 37.833 -41.499 61.5s-15.5 48.834 -15.5 75.501s5.16699 51.834 15.5 75.501s24.166 44.167 41.499 61.5s37.833 31.166 61.5 41.499s48.834 15.5 75.501 15.5
s51.834 -5.16699 75.501 -15.5s44.167 -24.166 61.5 -41.499s31.166 -37.833 41.499 -61.5s15.5 -48.834 15.5 -75.501s-5.16699 -51.834 -15.5 -75.501s-24.166 -44.167 -41.499 -61.5s-37.833 -31.166 -61.5 -41.499s-48.834 -15.5 -75.501 -15.5zM427 200
c0 22.667 -4.33301 44 -13 64s-20.334 37.333 -35.001 52s-32 26.334 -52 35.001s-41.333 13 -64 13s-44 -4.33301 -64 -13s-37.333 -20.334 -52 -35.001s-26.334 -32 -35.001 -52s-13 -41.333 -13 -64s4.33301 -44 13 -64s20.334 -37.333 35.001 -52s32 -26.334 52 -35.001
s41.333 -13 64 -13s44 4.33301 64 13s37.333 20.334 52 35.001s26.334 32 35.001 52s13 41.333 13 64zM263 87c-16 0 -30.833 3 -44.5 9s-25.5 14 -35.5 24s-18 21.833 -24 35.5s-9 28.5 -9 44.5c0 15.333 3 29.833 9 43.5s14 25.667 24 36s21.833 18.5 35.5 24.5
s28.5 9 44.5 9c15.333 0 29.833 -3 43.5 -9s25.667 -14.167 36 -24.5s18.5 -22.333 24.5 -36s9 -28.167 9 -43.5c0 -16 -3 -30.833 -9 -44.5s-14.167 -25.5 -24.5 -35.5s-22.333 -18 -36 -24s-28.167 -9 -43.5 -9zM347 200c0 22.667 -8.33301 42.334 -25 59.001
s-36.334 25 -59.001 25c-23.333 0 -43.166 -8.33301 -59.499 -25s-24.5 -36.334 -24.5 -59.001c0 -23.333 8.16699 -43.166 24.5 -59.499s36.166 -24.5 59.499 -24.5c22.667 0 42.334 8.16699 59.001 24.5s25 36.166 25 59.499z" />
    <glyph glyph-name="uni0E50" unicode="&#xe50;" horiz-adv-x="527" 
d="M493 199c0 -66.667 -22 -118.334 -66 -155.001c-41.333 -34 -95.666 -51 -162.999 -51c-68 0 -122.333 17 -163 51c-44.667 36.667 -67 88.334 -67 155.001s22.333 118.334 67 155.001c40.667 34 95 51 163 51c67.333 0 121.666 -17 162.999 -51
c44 -36.667 66 -88.334 66 -155.001zM368 96c29.333 26 44 60.333 44 103s-14.667 77 -44 103c-28 24 -62.667 36 -104 36c-42 0 -76.667 -12 -104 -36c-30 -26 -45 -60.333 -45 -103s15 -77 45 -103c27.333 -24 62 -36 104 -36c41.333 0 76 12 104 36z" />
    <glyph glyph-name="uni0E51" unicode="&#xe51;" horiz-adv-x="519" 
d="M219 -91l8 65.998h32c40.667 0 74.667 16.333 102 49c30 35.333 45 83.666 45 144.999c0 50 -13.667 89.667 -41 119s-65 44 -113 44c-42 0 -76.667 -11.667 -104 -35c-27.333 -24 -41 -55 -41 -93c0 -35.333 10 -62.666 30 -81.999c18 -17.333 40.333 -26 67 -26
c30 0 55.667 5.66699 77 17l5 -67c-24.667 -13.333 -52 -20 -82 -20c-49.333 0 -90 15 -122 45c-35.333 32.667 -53 77 -53 133c0 58.667 21 106.334 63 143.001c41.333 35.333 95 53 161 53c72 0 129 -21 171 -63c41.333 -41.333 62 -97.666 62 -168.999
c0 -79.333 -22.333 -142.333 -67 -189s-104.667 -70 -180 -70h-20z" />
    <glyph glyph-name="uni0E52" unicode="&#xe52;" horiz-adv-x="585" 
d="M543 170c0 -46 -16.667 -85.6689 -50 -119.002c-33.333 -34 -73 -51 -119 -51h-164c-50.667 0 -91.667 16.333 -123 49c-30 31.333 -45 71.333 -45 120v323h80v-323c0 -30.667 9 -55 27 -73c17.333 -17.333 39 -26 65 -26h160c24 0 44.667 9.66699 62 29
c18 19.333 27 43 27 71v76c0 48 -19.333 73.333 -58 76l-57 -55l-62 55c-30 -4 -45 -22 -45 -54c0 -33.333 19.333 -53.666 58 -60.999l-23 -60c-73.333 13.333 -110 53.666 -110 120.999c0 34.667 10.667 63.334 32 86.001c20.667 22.667 49 36.334 85 41.001l65 -64l57 64
c40.667 -2 73.667 -16.333 99 -43c26 -27.333 39 -63.333 39 -108v-74z" />
    <glyph glyph-name="uni0E53" unicode="&#xe53;" horiz-adv-x="536" 
d="M492 0l-79.999 -0.000976562v239c0 49.333 -19.667 75.333 -59 78l-76 -90l-87 87c-50.667 -22 -76 -62.667 -76 -122c0 -42 12.333 -75.333 37 -100c22.667 -23.333 50 -35 82 -35c28 0 52 5.66699 72 17l7 -64c-24.667 -11.333 -54 -17 -88 -17
c-52.667 0 -97.334 18.667 -134.001 56c-37.333 38 -56 86 -56 144c0 104 52 171.333 156 202l87 -85l72 85c42 -3.33301 76 -18.666 102 -45.999c27.333 -28.667 41 -66 41 -112v-237z" />
    <glyph glyph-name="uni0E54" unicode="&#xe54;" horiz-adv-x="531" 
d="M485 0l-46 -0.000976562c-51.333 0 -89 10.667 -113 32c-23.333 -26 -59 -39 -107 -39c-56.667 0 -101.667 17.333 -135 52c-33.333 34 -50 79.667 -50 137c0 64.667 21.667 116.334 65 155.001c42 37.333 95.333 56 160 56h75c58.667 0 88 26.667 88 80v19h84v-20
c0 -44.667 -13.333 -80.334 -40 -107.001c-28 -26.667 -65.667 -40 -113 -40h-93c-44.667 0 -79.667 -12 -105 -36c-26 -24.667 -39 -59.667 -39 -105c0 -41.333 10.333 -72.666 31 -93.999c18.667 -20 44 -30 76 -30c28 0 51.333 6.33301 70 19
c-13.333 15.333 -20 37 -20 65c0 33.333 10.667 60 32 80c20 18.667 45 28 75 28h63l-14 -68h-35c-29.333 0 -44 -15.667 -44 -47c0 -46.667 32.333 -70 97 -70h48z" />
    <glyph glyph-name="uni0E55" unicode="&#xe55;" horiz-adv-x="531" 
d="M268 402c22 0 33.001 11.332 33.001 33.999c0 8.66699 -3.33301 16.334 -10 23.001s-14.334 10 -23.001 10c-22.667 0 -34 -11 -34 -33c0 -22.667 11.333 -34 34 -34zM485.001 -0.000976562h-46c-51.333 0 -89 10.667 -113 32c-23.333 -26 -59 -39 -107 -39
c-56.667 0 -101.667 17.333 -135 52c-33.333 34 -50 79.667 -50 137s16.333 104.666 49 141.999c32.667 36.667 76 58 130 64c-16 10.667 -24 26.667 -24 48c0 22.667 7.66699 41 23 55c14 13.333 32.333 20 55 20s41.667 -7 57 -21s23 -32 23 -54c0 -20 -7 -34.333 -21 -43
h12c56 0 84 26.667 84 80v19h84v-20c0 -44 -13 -79 -39 -105c-26.667 -26.667 -64.667 -40 -114 -40h-100c-91.333 0 -137 -47.667 -137 -143c0 -41.333 10.333 -72.666 31 -93.999c18.667 -20 44 -30 76 -30c28 0 51.333 6.33301 70 19c-13.333 15.333 -20 37 -20 65
c0 33.333 10.667 60 32 80c20 18.667 45 28 75 28h63l-14 -68h-35c-29.333 0 -44 -15.667 -44 -47c0 -46.667 32.333 -70 97 -70h48z" />
    <glyph glyph-name="uni0E56" unicode="&#xe56;" horiz-adv-x="526" 
d="M204 180c-14.667 -11.333 -22.001 -27.333 -22.001 -48c0 -20 9 -37.333 27 -52c18.667 -15.333 42.334 -23 71.001 -23c42 0 75.667 14 101 42c24 26 36 59.333 36 100c0 42 -12.667 76.333 -38 103c-26.667 28 -62.667 42 -108 42c-58.667 0 -106.667 -25.667 -144 -77
h-56l-50 225h79l30 -147c35.333 43.333 86 65 152 65c62.667 0 114 -20.333 154 -61c40 -40 60 -90 60 -150c0 -58 -17.333 -106 -52 -144c-37.333 -41.333 -88 -62 -152 -62c-57.333 0 -103.333 14 -138 42c-34 28 -51 64 -51 108c0 34 13.333 60.667 40 80z" />
    <glyph glyph-name="uni0E57" unicode="&#xe57;" horiz-adv-x="683" 
d="M639 151c0 -44 -13.332 -80.001 -39.999 -108.001c-26.667 -28.667 -60.667 -43 -102 -43h-93v239c0 49.333 -19.667 75.333 -59 78l-75 -93l-80 90c-50.667 -22 -76 -62.667 -76 -122c0 -42 12.333 -75.333 37 -100c22.667 -23.333 50 -35 82 -35c28 0 52 5.66699 72 17
l7 -64c-24.667 -11.333 -54 -17 -88 -17c-52.667 0 -97.334 18.667 -134.001 56c-37.333 38 -56 86 -56 144c0 104 52 171.333 156 202l80 -91l71 91c42 -3.33301 76 -18.666 102 -45.999c27.333 -28.667 41 -66 41 -112v-177h14c40.667 0 61 26.667 61 80v352h80v-341z" />
    <glyph glyph-name="uni0E58" unicode="&#xe58;" horiz-adv-x="513" 
d="M355 65c34.667 8.66699 51.999 33.668 51.999 75.001c0 20 -7 37 -21 51c-13.333 12.667 -29.333 19.667 -48 21l25 56c34 -2.66699 62 -16.667 84 -42c22 -24.667 33 -54 33 -88c0 -38 -13.667 -71.333 -41 -100c-27.333 -28 -58 -42 -92 -42l-77 76l-67 -76
c-46.667 0 -85 11.667 -115 35c-32 24.667 -48 58 -48 100v91c0 47.333 16.667 87.333 50 120c34.667 34 79.334 51 134.001 51h74c60 0 90 26.667 90 80v19h81v-20c0 -45.333 -13.333 -81.333 -40 -108c-28 -27.333 -66.333 -41 -115 -41h-85c-71.333 0 -107 -35 -107 -105
v-85c0 -18.667 5.66699 -34.334 17 -47.001c12 -13.333 29 -20 51 -20l80 86z" />
    <glyph glyph-name="uni0E59" unicode="&#xe59;" horiz-adv-x="534" 
d="M433 0l-82.0029 0.000976562l-99 284c-11.333 32 -32.666 48 -63.999 48c-23.333 0 -42 -11.667 -56 -35c-14 -24 -21 -56 -21 -96c0 -42.667 8 -77.667 24 -105c14 -26 30.667 -39 50 -39c20.667 0 39.334 6.66699 56.001 20l16 -57c-22 -18 -47.667 -27 -77 -27
c-40.667 0 -75 19.333 -103 58c-28.667 39.333 -43 89.333 -43 150c0 59.333 14.333 107.666 43 144.999c28 36 63.667 54 107 54c46.667 0 80.334 -17.333 101.001 -52c8.66699 34.667 33 52 73 52c28.667 0 51 -10.667 67 -32l23 124h75l-40 -201h-60
c-9.33301 30.667 -28 46 -56 46c-24 0 -36 -13.667 -36 -41z" />
    <glyph glyph-name="uni0E5B" unicode="&#xe5b;" horiz-adv-x="830" 
d="M680 189c0 -34.667 -12.334 -58.667 -37.001 -72l-203 -104v239c0 18 6 30.333 18 37l145 74c8.66699 4.66699 18.334 7 29.001 7c32 0 48 -18 48 -54v-127zM413.999 0l-264 135v260c0 24.667 9.66699 42 29 52l164 84c24.667 12.667 47.667 19 69 19
c20.667 0 45.667 -7 75 -21l115 -57c16 -8 24 -20 24 -36c0 -19.333 -11 -34.333 -33 -45l-148 -75c-20.667 -10.667 -31 -31 -31 -61v-255z" />
    <glyph glyph-name="endash" unicode="&#x2013;" horiz-adv-x="435" 
d="M435 204h-435v60h435v-60z" />
    <glyph glyph-name="emdash" unicode="&#x2014;" horiz-adv-x="870" 
d="M870 204h-870v60h870v-60z" />
    <glyph glyph-name="quoteleft" unicode="&#x2018;" horiz-adv-x="242" 
d="M142 394h-97l74 213h78z" />
    <glyph glyph-name="quoteright" unicode="&#x2019;" horiz-adv-x="242" 
d="M120 394h-75l54 213h98z" />
    <glyph glyph-name="quotesinglbase" unicode="&#x201a;" horiz-adv-x="242" 
d="M123 -116h-78l55 213h97z" />
    <glyph glyph-name="quotedblleft" unicode="&#x201c;" 
d="M345 394h-96l73 213h78zM181 394h-97l74 213h77z" />
    <glyph glyph-name="quotedblright" unicode="&#x201d;" 
d="M326 394h-77l55 213h96zM161 394h-77l54 213h97z" />
    <glyph glyph-name="quotedblbase" unicode="&#x201e;" 
d="M326 -116h-77l55 213h96zM161 -116h-77l54 213h97z" />
    <glyph glyph-name="dagger" unicode="&#x2020;" 
d="M280 0h-76v394h-146v61h146v152h76v-152h145v-61h-145v-394z" />
    <glyph glyph-name="daggerdbl" unicode="&#x2021;" 
d="M425 141h-145v-141h-76v141h-146v61h146v203h-146v61h146v141h76v-141h145v-61h-145v-203h145v-61z" />
    <glyph glyph-name="bullet" unicode="&#x2022;" horiz-adv-x="435" 
d="M370 304c0 -42.667 -14.667 -79 -44 -109c-30 -29.333 -66 -44 -108 -44s-77.667 14.667 -107 44c-30 30 -45 66.333 -45 109c0 42 15 77.667 45 107c29.333 29.333 65 44 107 44s78 -14.667 108 -44c29.333 -29.333 44 -65 44 -107z" />
    <glyph glyph-name="ellipsis" unicode="&#x2026;" horiz-adv-x="870" 
d="M773 0h-97v97h97v-97zM484 0h-98v97h98v-97zM194 0h-97v97h97v-97z" />
    <glyph glyph-name="perthousand" unicode="&#x2030;" horiz-adv-x="870" 
d="M131 -19h-63l377 645h62zM133 331c36 0 54 37.667 54 113s-18 113 -54 113s-54 -37.667 -54 -113s18 -113 54 -113zM263 444c0 -116 -43.333 -174 -130 -174s-130 58 -130 174s43.333 174 130 174s130 -58 130 -174zM442 50c36 0 54 37.667 54 113s-18 113 -54 113
s-54 -37.667 -54 -113s18 -113 54 -113zM572 163c0 -116 -43.333 -174 -130 -174s-130 58 -130 174s43.333 174 130 174s130 -58 130 -174zM737 50c36 0 54 37.667 54 113s-18 113 -54 113s-54 -37.667 -54 -113s18 -113 54 -113zM867 163c0 -116 -43.333 -174 -130 -174
s-130 58 -130 174s43.333 174 130 174s130 -58 130 -174z" />
    <glyph glyph-name="guilsinglleft" unicode="&#x2039;" horiz-adv-x="242" 
d="M218 58h-76l-125 176l125 176h76l-113 -176z" />
    <glyph glyph-name="guilsinglright" unicode="&#x203a;" horiz-adv-x="242" 
d="M100 58h-77l114 176l-114 176h77l124 -176z" />
    <glyph glyph-name="fraction" unicode="&#x2044;" horiz-adv-x="145" 
d="M-84 -19h-63l377 645h62z" />
    <glyph glyph-name="Euro" unicode="&#x20ac;" 
d="M494 9c-30.667 -12.667 -71 -19 -121 -19c-74 0 -136 20.333 -186 61c-51.333 40.667 -84.333 97 -99 169h-83l12 47h65c-1.33301 16 -2 28.333 -2 37c0 8 0.666992 20 2 36h-77l12 47h72c15.333 70 48.333 126 99 168c51.333 42 113 63 185 63
c50.667 0 95 -7.66699 133 -23l-17 -72c-28.667 15.333 -64.667 23 -108 23c-101.333 0 -167 -53 -197 -159h277l-11 -47h-276c-1.33301 -8 -2 -20 -2 -36c0 -16.667 0.666992 -29 2 -37h260l-10 -47h-240c30 -104.667 95.333 -157 196 -157c42.667 0 79 7 109 21z" />
    <glyph glyph-name="trademark" unicode="&#x2122;" horiz-adv-x="861" 
d="M814 245h-66v277h-2l-101 -277h-54l-102 277h-2v-277h-66v362h103l95 -244l93 244h102v-362zM224 245h-66v301h-111v61h289v-61h-112v-301z" />
    <glyph glyph-name="partialdiff" unicode="&#x2202;" horiz-adv-x="445" 
d="M309 114c19.333 38 29 81.333 29 130c-36 49.333 -78.667 74 -128 74c-36.667 0 -65.667 -14 -87 -42c-20 -25.333 -30 -56.333 -30 -93c0 -37.333 9.66699 -69.333 29 -96c21.333 -30 50 -45 86 -45c44 0 77.667 24 101 72zM343 345
c0 56.667 -10.668 106.001 -32.001 148.001c-27.333 52.667 -67 79 -119 79c-30 0 -63 -13.333 -99 -40l-36 43c38.667 34.667 83 52 133 52c77.333 0 135 -34.333 173 -103c30 -54.667 45 -124.334 45 -209.001c0 -216.667 -67.333 -325 -202 -325
c-53.333 0 -96.666 19.667 -129.999 59c-31.333 36.667 -47 82 -47 136c0 53.333 15.333 97.333 46 132c32 36 74.333 54 127 54c56 0 102.667 -22 140 -66z" />
    <glyph glyph-name="Delta" unicode="&#x2206;" horiz-adv-x="586" 
d="M479 63l-189 483l-186 -483h375zM576 0h-565l243 619h72z" />
    <glyph glyph-name="product" unicode="&#x220f;" horiz-adv-x="626" 
d="M566 -186h-68v807h-371v-807h-68v870h507v-870z" />
    <glyph glyph-name="summation" unicode="&#x2211;" horiz-adv-x="535" 
d="M512 -186h-490v55l280 383l-268 376v56h468v-63h-380l262 -369l-278 -376h406v-62z" />
    <glyph glyph-name="minus" unicode="&#x2212;" horiz-adv-x="522" 
d="M481 182h-440v76h440v-76z" />
    <glyph glyph-name="radical" unicode="&#x221a;" horiz-adv-x="438" 
d="M264 -186h-66l-141 290l-40 -19l-25 52l98 46l131 -276l160 777h66z" />
    <glyph glyph-name="infinity" unicode="&#x221e;" horiz-adv-x="660" 
d="M165 144c36 0 78.667 24.667 128 74c-52.667 52.667 -96 79 -130 79c-21.333 0 -38.333 -8 -51 -24c-12.667 -14.667 -19 -32.667 -19 -54c0 -22.667 6.33301 -40.667 19 -54c13.333 -14 31 -21 53 -21zM496 298c-32 0 -74.667 -26.667 -128 -80
c54 -49.333 97.667 -74 131 -74c21.333 0 38.333 7.33301 51 22c11.333 14 17 31.667 17 53c0 52.667 -23.667 79 -71 79zM496 85c-50.667 0 -105.667 31.666 -165 94.999c-48.667 -41.333 -73.667 -62.333 -75 -63c-30 -20.667 -60.667 -31 -92 -31
c-38 0 -68.667 12.667 -92 38c-23.333 24.667 -35 56.334 -35 95.001s11 70.667 33 96c23.333 26.667 54.333 40 93 40c42 0 98 -33 168 -99c67.333 67.333 122 101 164 101c38.667 0 70 -13 94 -39c23.333 -25.333 35 -57.333 35 -96s-11.667 -71 -35 -97
c-24 -26.667 -55 -40 -93 -40z" />
    <glyph glyph-name="integral" unicode="&#x222b;" horiz-adv-x="482" 
d="M255 38c0 -66.667 -4.00195 -113.667 -12.002 -141c-15.333 -54.667 -48 -82 -98 -82c-14.667 0 -27.667 3.66699 -39 11c-14 8 -21 19.333 -21 34c0 8 3.33301 15.333 10 22c6.66699 6 14 9 22 9c11.333 0 21 -6 29 -18c8.66699 -12 14.334 -18 17.001 -18
c16 0 24 43.667 24 131v450c0 82.667 2.33301 134.667 7 156c14 61.333 48.333 92 103 92c45.333 0 68 -16.333 68 -49c0 -22 -12 -33 -36 -33c-10.667 0 -20.667 6.33301 -30 19c-9.33301 12 -15.666 18 -18.999 18c-15.333 0 -24 -18.667 -26 -56l1 -100v-445z" />
    <glyph glyph-name="approxequal" unicode="&#x2248;" horiz-adv-x="516" 
d="M487 204c-6.66699 -84.667 -44 -127 -112 -127c-26 0 -67.333 10.667 -124 32c-57.333 20.667 -95 31 -113 31c-36.667 0 -58.334 -22.667 -65.001 -68h-45c10.667 86 48 129 112 129c26.667 0 67.334 -10.333 122.001 -31c55.333 -20.667 94 -31 116 -31
c34.667 0 56.667 21.667 66 65h43zM488 361c-10.667 -84.667 -48.333 -127 -113 -127c-26 0 -67.333 10.333 -124 31c-56 20.667 -93.333 31 -112 31c-37.333 0 -59.333 -22.333 -66 -67h-44c2.66699 34.667 13 63.667 31 87c20 28 47 42 81 42c25.333 0 66 -10.333 122 -31
c55.333 -20.667 94 -31 116 -31c34 0 56 21.667 66 65h43z" />
    <glyph glyph-name="notequal" unicode="&#x2260;" horiz-adv-x="522" 
d="M481 99h-250l-66 -127l-54 28l51 99h-123v63h155l59 110h-214v62h247l67 129l54 -28l-54 -101h128v-62h-160l-58 -110h218v-63z" />
    <glyph glyph-name="lessequal" unicode="&#x2264;" horiz-adv-x="522" 
d="M483 -26h-442v63h442v-63zM483 71l-442 160v66l442 162v-67l-355 -128l355 -126v-67z" />
    <glyph glyph-name="greaterequal" unicode="&#x2265;" horiz-adv-x="522" 
d="M483 -26h-442v63h442v-63zM483 231l-442 -160v67l355 126l-355 128v67l442 -162v-66z" />
    <glyph glyph-name="lozenge" unicode="&#x25ca;" horiz-adv-x="516" 
d="M258 36l114 274l-114 274l-114 -274zM289 -30h-63l-149 340l149 340h63l149 -340z" />
    <glyph glyph-name="uni0E10.alt1" unicode="&#xf700;" horiz-adv-x="516" 
d="M251 68c38 0 69.333 16.666 94 49.999c26 36 39 84.333 39 145c0 66.667 -13 115.334 -39 146.001c-24.667 28.667 -63.667 43 -117 43c-64 0 -117.667 -25 -161 -75l-36 63c56 54.667 121.667 82 197 82c55.333 0 98 -9.66699 128 -29l57 62h98l-102 -107
c40 -38 60 -99.667 60 -185c0 -78 -21 -141.333 -63 -190c-41.333 -48.667 -95.333 -73 -162 -73h-72l-44 186c-5.33301 21.333 -17 32 -35 32h-28v75h48c43.333 0 72 -22 86 -66l39 -159h13z" />
    <glyph glyph-name="uni0E34.alt1" unicode="&#xf701;" horiz-adv-x="0" 
d="M-161 579h-328v72h328v-72z" />
    <glyph glyph-name="uni0E35.alt1" unicode="&#xf702;" horiz-adv-x="0" 
d="M-161 579h-328v72h248v70h80v-142z" />
    <glyph glyph-name="uni0E36.alt1" unicode="&#xf703;" horiz-adv-x="0" 
d="M-298 651c-1.33301 5.33301 -2 10.333 -2 15c0 22 7.66699 40.667 23 56c16 15.333 35.667 23 59 23s43.333 -7.66699 60 -23c16 -15.333 24 -34 24 -56c0 -24 -8.33301 -44.333 -25 -61c-17.333 -17.333 -39 -26 -65 -26h-265v72h191zM-216 636c20 0 30 10 30 30
s-10 30 -30 30s-30 -10 -30 -30s10 -30 30 -30z" />
    <glyph glyph-name="uni0E37.alt1" unicode="&#xf704;" horiz-adv-x="0" 
d="M-161 579h-328v72h148v64h67v-64h42v64h71v-136z" />
    <glyph glyph-name="uni0E48.alt1" unicode="&#xf705;" horiz-adv-x="0" 
d="M-202 579h-70v143h70v-143z" />
    <glyph glyph-name="uni0E49.alt1" unicode="&#xf706;" horiz-adv-x="0" 
d="M-85 579h-195c-13.333 0 -25 4.33301 -35 13s-15 19 -15 31v17c0 10 -5.66699 15 -17 15h-47v64h77c36 0 54 -15.333 54 -46v-14c0 -10 5.66699 -15 17 -15h161v-65z" />
    <glyph glyph-name="uni0E4A.alt1" unicode="&#xf707;" horiz-adv-x="0" 
d="M-229 580l-8 14.999c6 6 9 13.667 9 23c0 18 -9.33301 28 -28 30l-53 -42l-52 40c-15.333 -5.33301 -23 -14.666 -23 -27.999c0 -4.66699 2.33301 -12.334 7 -23.001l-9 -16h-57c-5.33301 14 -8 29.667 -8 47c0 19.333 7 36.333 21 51c15.333 16 35.666 25.333 60.999 28
l60 -50l57 51c52.667 -2 79 -30.333 79 -85c21.333 10 32 34.333 32 73c0 14 -2 29 -6 45h72c2.66699 -10 4.33398 -23.333 5.00098 -40c0 -33.333 -11.667 -61.666 -35 -84.999c-23.333 -22.667 -51.333 -34 -84 -34h-40z" />
    <glyph glyph-name="uni0E4B.alt1" unicode="&#xf708;" horiz-adv-x="0" 
d="M-154 627l-71 2l2 -50h-87l2 50l-71 -2v57l71 -2l-2 50h87l-2 -50l71 2v-57z" />
    <glyph glyph-name="uni0E4C.alt1" unicode="&#xf709;" horiz-adv-x="0" 
d="M-163 639h-79c-22 0 -33 -10 -33 -30v-30h-86v48c0 22 8 40.667 24 56c16 14.667 35.333 22 58 22h116v-66z" />
    <glyph glyph-name="uni0E48.alt2" unicode="&#xf70a;" horiz-adv-x="0" 
d="M-45 579h-79v140h79v-140z" />
    <glyph glyph-name="uni0E49.alt2" unicode="&#xf70b;" horiz-adv-x="0" 
d="M35 579h-199c-30.667 0 -46 13.667 -46 41v20c0 10 -5.66699 15 -17 15h-47v64h80c34 0 51 -14 51 -42v-18c0 -10 5.66699 -15 17 -15h161v-65z" />
    <glyph glyph-name="uni0E4A.alt2" unicode="&#xf70c;" horiz-adv-x="0" 
d="M-181 580l-8 14.999c6 6 9 13.667 9 23c0 18 -9.33301 28 -28 30l-53 -42l-52 40c-15.333 -5.33301 -23 -14.666 -23 -27.999c0 -4.66699 2.33301 -12.334 7 -23.001l-9 -16h-57c-5.33301 14 -8 29.667 -8 47c0 19.333 7 36.333 21 51c15.333 16 35.666 25.333 60.999 28
l60 -49l57 50c52.667 -2 79 -30.333 79 -85c21.333 10 32 34.333 32 73c0 14 -2 29 -6 45h72c2.66699 -10 4.33398 -23.333 5.00098 -40c0 -33.333 -11.667 -61.666 -35 -84.999c-23.333 -22.667 -51.333 -34 -84 -34h-40z" />
    <glyph glyph-name="uni0E4B.alt2" unicode="&#xf70d;" horiz-adv-x="0" 
d="M30 627l-71 2l2 -50h-87l2 50l-71 -2v57l71 -2l-2 50h87l-2 -50l71 2v-57z" />
    <glyph glyph-name="uni0E4C.alt2" unicode="&#xf70e;" horiz-adv-x="0" 
d="M-14 639h-79c-22 0 -33 -10 -33 -30v-30h-86v48c0 22 8 40.667 24 56c16 14.667 35.333 22 58 22h116v-66z" />
    <glyph glyph-name="uni0E0D.alt1" unicode="&#xf70f;" horiz-adv-x="827" 
d="M783 173c0 -120.667 -65.6689 -181.001 -197.002 -181.001c-132 0 -198 63 -198 189v152c0 81.333 -40 122 -120 122c-69.333 0 -118.333 -26.333 -147 -79l56 -67c-25.333 -16.667 -38 -43 -38 -79v-144c0 -12.667 6 -19 18 -19h36v-67h-68
c-20.667 0 -37.667 7.66699 -51 23c-13.333 14.667 -20 33.334 -20 56.001v138c0 43.333 13.333 74 40 92l-57 67c12.667 39.333 39.667 73 81 101c44.667 30 94.334 45 149.001 45c60.667 0 110.334 -17.333 149.001 -52c38 -34.667 57 -78 57 -130v-165
c0 -76.667 38 -115 114 -115c74 0 111 35.667 111 107v344h85v-338z" />
    <glyph glyph-name="uni0E31.alt1" unicode="&#xf710;" horiz-adv-x="0" 
d="M11 579h-306c-20 0 -37 6.66699 -51 20c-14 14 -21 31.333 -21 52v49h85v-40c0 -10 5.66699 -15 17 -15h276v-66z" />
    <glyph glyph-name="uni0E4D.alt1" unicode="&#xf711;" horiz-adv-x="0" 
d="M-147 654c0 -24.667 -8.66699 -45.334 -26 -62.001c-16.667 -17.333 -37.334 -26 -62.001 -26s-45.334 8.66699 -62.001 26c-17.333 16.667 -26 37.334 -26 62.001s8.66699 45.334 26 62.001c16.667 17.333 37.334 26 62.001 26s45.334 -8.66699 62.001 -26
c17.333 -16.667 26 -37.334 26 -62.001zM-235 618c24 0 36 12.333 36 37c0 24 -12 36 -36 36s-36 -12 -36 -36c0 -24.667 12 -37 36 -37z" />
    <glyph glyph-name="uni0E47.alt1" unicode="&#xf712;" horiz-adv-x="0" 
d="M-168 575l-74.999 -0.00292969c-27.333 0 -50 14.667 -68 44c-14.667 -29.333 -44 -44 -88 -44c-26.667 0 -48.334 8.66699 -65.001 26c-16.667 16.667 -25 38.334 -25 65.001s9.33301 48.334 28 65.001c20 18.667 49 28 87 28h99c26.667 0 40 11 40 33v24h77v-27
c0 -25.333 -9 -46.666 -27 -63.999s-42 -26 -72 -26h-115c-26 0 -39 -10 -39 -30c0 -18.667 12.333 -28 37 -28c30 0 51.333 8.33301 64 25c15.333 -16.667 34.333 -25 57 -25h85v-66z" />
    <glyph glyph-name="uni0E48.alt3" unicode="&#xf713;" horiz-adv-x="0" 
d="M-163 767h-75v105h75v-105z" />
    <glyph glyph-name="uni0E49.alt3" unicode="&#xf714;" horiz-adv-x="0" 
d="M-67 767h-174c-30.667 0 -46 13.667 -46 41v15c0 10 -5.66699 15 -17 15h-47v64h80c34 0 51 -14 51 -42v-13c0 -10 5.66699 -15 17 -15h136v-65z" />
    <glyph glyph-name="uni0E4A.alt3" unicode="&#xf715;" horiz-adv-x="0" 
d="M-160 767l-8 14.999c6 6 9 13.667 9 23c0 18 -9.33301 28 -28 30l-44 -40l-46 38c-15.333 -5.33301 -23 -14.666 -23 -27.999c0 -4.66699 2.33301 -12.334 7 -23.001l-9 -16h-57c-5.33301 14 -8 29.667 -8 47c0 19.333 7 36.333 21 51c15.333 16 35.666 25.333 60.999 28
l54 -51l48 52c52.667 -2 79 -30.333 79 -85c21.333 10 32 34.333 32 73c0 14 -2 29 -6 45h72c2.66699 -10 4.33398 -23.333 5.00098 -40c0 -33.333 -11.667 -61.666 -35 -84.999c-23.333 -22.667 -51.333 -34 -84 -34h-40z" />
    <glyph glyph-name="uni0E4B.alt3" unicode="&#xf716;" horiz-adv-x="0" 
d="M-105 812l-65 2l2 -47h-77l2 47l-65 -2v54l65 -2l-2 48h77l-2 -48l65 2v-54z" />
    <glyph glyph-name="uni0E4C.alt3" unicode="&#xf717;" horiz-adv-x="0" 
d="M-119 742h-59c-22 0 -33 -10 -33 -30v-18h-86v36c0 22 8 40.667 24 56c16 14.667 35.333 22 58 22h96v-66z" />
    <glyph glyph-name="uni0E38.alt1" unicode="&#xf718;" horiz-adv-x="0" 
d="M-44 -451h-75v117c0 8.66699 -4 13 -12 13h-51v63h83c16 0 29.333 -5.66699 40 -17c10 -10.667 15 -23.667 15 -39v-137z" />
    <glyph glyph-name="uni0E39.alt1" unicode="&#xf719;" horiz-adv-x="0" 
d="M-44 -352c0 -33.333 -10.667 -59.667 -32 -79c-22 -19.333 -52.667 -29 -92 -29c-36.667 0 -65.667 9.66699 -87 29c-20.667 18.667 -31 43.667 -31 75v36h-48v62h116v-98c0 -32.667 16.667 -49 50 -49c34 0 51 17.667 51 53v94h73v-94z" />
    <glyph glyph-name="uni0E3A.alt1" unicode="&#xf71a;" horiz-adv-x="0" 
d="M-54 -349c-11.333 -10.667 -24.666 -16 -39.999 -16s-28.333 5.33301 -39 16c-11.333 10.667 -17 23.334 -17 38.001s5.66699 27.667 17 39c10.667 10.667 23.667 16 39 16s28.666 -5.33301 39.999 -16c10.667 -10.667 16 -23.667 16 -39
c0 -14.667 -5.33301 -27.334 -16 -38.001z" />
    <glyph glyph-name="uni0E0E.alt1" unicode="&#xf71b;" horiz-adv-x="543" 
d="M499 -200l-104 0.000976562c-36 33.333 -75.667 50 -119 50c-50 0 -95.333 -16.667 -136 -50l-21 65c41.333 36.667 90.333 55 147 55c54 0 103.333 -19.667 148 -59v472c0 38 -12 68 -36 90c-23.333 21.333 -54.666 32 -93.999 32c-65.333 0 -112.333 -26.333 -141 -79
l56 -67c-25.333 -16.667 -38 -43 -38 -79v-156c0 -20.667 -6.66699 -38.334 -20 -53.001c-12.667 -14 -28.667 -21 -48 -21h-66v67h31c12 0 18 6.33301 18 19v131c0 43.333 13 74 39 92l-57 67c12.667 40 39 73.667 79 101c43.333 30 92.333 45 147 45
c61.333 0 112.666 -17.667 153.999 -53c40.667 -35.333 61 -79.333 61 -132v-537z" />
    <glyph glyph-name="uni0E0F.alt1" unicode="&#xf71c;" horiz-adv-x="543" 
d="M499 -200l-81 0.000976562l-109 65c-21.333 -47.333 -59.333 -71 -114 -71c-43.333 0 -79.666 9.66699 -108.999 29l16 66c29.333 -18.667 59 -28 89 -28c25.333 0 47.666 8.33301 66.999 25c18.667 16.667 30.667 38 36 64l120 -72v455c0 38 -12 68 -36 90
c-23.333 21.333 -54.666 32 -93.999 32c-65.333 0 -112.333 -26.333 -141 -79l56 -67c-25.333 -16.667 -38 -43 -38 -79v-156c0 -20.667 -6.66699 -38.334 -20 -53.001c-12.667 -14 -28.667 -21 -48 -21h-66v67h31c12 0 18 6.33301 18 19v131c0 43.333 13 74 39 92l-57 67
c12.667 40 39 73.667 79 101c43.333 30 92.333 45 147 45c61.333 0 112.666 -17.667 153.999 -53c40.667 -35.333 61 -79.333 61 -132v-537z" />
    <glyph glyph-name="uni0E2C.alt1" unicode="&#xf71d;" horiz-adv-x="572" 
d="M528 0h-73l-169 249l-169 -249h-73v511h83v-323c0 -24.667 -1.33301 -49.667 -4 -75l14 42l134 186h30l135 -188l13 -50c-2.66699 29.333 -4 59 -4 89v125c0 45.333 -22.667 68 -68 68h-18l-11 33l107 150h85l-101 -145c59.333 -12 89 -54 89 -126v-297z" />
    <glyph glyph-name="apple" unicode="&#xf8ff;" horiz-adv-x="830" 
d="M680 189c0 -34.667 -12.334 -58.667 -37.001 -72l-203 -104v239c0 18 6 30.333 18 37l145 74c8.66699 4.66699 18.334 7 29.001 7c32 0 48 -18 48 -54v-127zM413.999 0l-264 135v260c0 24.667 9.66699 42 29 52l164 84c24.667 12.667 47.667 19 69 19
c20.667 0 45.667 -7 75 -21l115 -57c16 -8 24 -20 24 -36c0 -19.333 -11 -34.333 -33 -45l-148 -75c-20.667 -10.667 -31 -31 -31 -61v-255z" />
    <glyph glyph-name=".null" horiz-adv-x="0" 
 />
    <glyph glyph-name="nonmarkingreturn" horiz-adv-x="195" 
 />
    <glyph glyph-name="uni0E33.alt1" horiz-adv-x="434" 
d="M390 0h-85.001v333c0 78.667 -36.667 118 -110 118c-60 0 -111.333 -22.667 -154 -68l-28 59c54.667 53.333 118 80 190 80c58.667 0 104.334 -17.333 137.001 -52c33.333 -34.667 50 -82.667 50 -144v-326zM-147.001 654c0 -24.667 -8.66699 -45.334 -26 -62.001
c-16.667 -17.333 -37.334 -26 -62.001 -26s-45.334 8.66699 -62.001 26c-17.333 16.667 -26 37.334 -26 62.001s8.66699 45.334 26 62.001c16.667 17.333 37.334 26 62.001 26s45.334 -8.66699 62.001 -26c17.333 -16.667 26 -37.334 26 -62.001zM-235.001 618
c24 0 36 12.333 36 37c0 24 -12 36 -36 36s-36 -12 -36 -36c0 -24.667 12 -37 36 -37z" />
    <glyph glyph-name="uni0E4E.alt1" horiz-adv-x="0" 
 />
  </font>
</defs>
</svg>
